[ create a new paste ] login | about

Link: http://codepad.org/jFPy6dLz    [ raw code | fork ]

Plain Text, pasted on May 30:
foobar2000 1.4.4 / Dynamic Range Meter 1.1.1
log date: 2019-05-29 11:22:41

--------------------------------------------------------------------------------
Analyzed: Morrissey / California Son
--------------------------------------------------------------------------------

DR         Peak         RMS     Duration Track
--------------------------------------------------------------------------------
DR6        0.00 dB    -7.35 dB      3:29 01-Morning Starship
DR6        0.00 dB    -7.62 dB      4:06 02-Don't Interrupt the Sorrow
DR5        0.00 dB    -5.60 dB      3:46 03-Only a Pawn in Their Game
DR5        0.00 dB    -5.50 dB      3:32 04-Suffer the Little Children
DR6        0.00 dB    -7.30 dB      2:56 05-Days of Decision
DR5        0.00 dB    -6.57 dB      2:52 06-It's Over
DR5        0.00 dB    -6.26 dB      2:57 07-Wedding Bell Blues
DR6        0.00 dB    -7.06 dB      2:09 08-Loneliness Remembers What Happiness Forgets
DR3        0.00 dB    -4.93 dB      3:07 09-Lady Willpower
DR5        0.00 dB    -6.40 dB      3:29 10-When You Close Your Eyes
DR9        0.00 dB   -10.48 dB      3:31 11-Lenny's Tune
DR6        0.00 dB    -8.95 dB      4:09 12-Some Say I Got Devil
--------------------------------------------------------------------------------

Number of tracks:  12
Official DR value: DR5

Samplerate:        96000 Hz
Channels:          2
Bits per sample:   24
Bitrate:           2905 kbps
Codec:             FLAC
================================================================================




Create a new paste based on this one


Comments: