[ create a new paste ] login | about

Link: http://codepad.org/jFbbwCHh    [ raw code | fork ]

Plain Text, pasted on Mar 13:
foobar2000 1.4.1 / Dynamic Range Meter 1.1.1
log date: 2019-03-13 10:10:40

--------------------------------------------------------------------------------
Analyzed: ? / The Best Of Everything - 1976-2016 [Disc Two]
--------------------------------------------------------------------------------

DR         Peak         RMS     Duration Track
--------------------------------------------------------------------------------
DR11      -0.05 dB   -13.39 dB      3:11 01-Wildflowers
DR9        0.00 dB   -10.34 dB      4:01 02-Learning To Fly 
DR7       -0.75 dB    -9.84 dB      4:23 03-Here Comes My Girl
DR8       -0.10 dB    -9.67 dB      3:30 04-The Last DJ
DR8       -0.09 dB    -8.76 dB      2:23 05-I Need To Know
DR7        0.00 dB    -8.38 dB      4:36 06-Scare Easy
DR8       -0.67 dB   -11.15 dB      3:32 07-You Got Lucky
DR8       -0.34 dB    -9.48 dB      4:22 08-Runnin' Down A Dream 
DR7       -0.28 dB    -9.01 dB      3:00 09-American Dream Plan B
DR8       -0.10 dB   -10.48 dB      4:03 10-Stop Draggin' My Heart Around
DR8        0.00 dB    -9.66 dB      3:19 11-Trailer 
DR8        0.00 dB    -9.54 dB      3:41 12-Into The Great Wide Open
DR8       -0.10 dB   -10.88 dB      5:01 13-Room At The Top
DR9       -3.99 dB   -14.79 dB      3:26 14-Square One
DR8        0.00 dB    -9.50 dB      4:03 15-Jammin' Me - Album Version
DR7       -0.80 dB    -9.77 dB      3:34 16-Even The Losers - Album Version
DR7        0.00 dB    -9.35 dB      5:56 17-Hungry No More
DR10      -2.80 dB   -13.91 dB      4:14 18-I Forgive It All
DR9        0.00 dB   -11.24 dB      3:52 19-For Real
--------------------------------------------------------------------------------

Number of tracks:  19
Official DR value: DR8

Samplerate:        44100 Hz
Channels:          2
Bits per sample:   16
Bitrate:           945 kbps
Codec:             FLAC
================================================================================




Create a new paste based on this one


Comments: