[ create a new paste ] login | about

Link: http://codepad.org/jSBgQzgM    [ raw code | fork ]

Plain Text, pasted on Feb 6:
CD-QUALITY
----------

foobar2000 1.6 / Dynamic Range Meter 1.1.1
log date: 2021-02-06 17:54:35

--------------------------------------------------------------------------------
Analyzed: Bruce Dickinson / Welcome To The Nightmare (A Tribute To Alice Cooper) (1)
          Dave Mustaine / Welcome To The Nightmare (A Tribute To Alice Cooper) (2)
          Dee Snider / Welcome To The Nightmare (A Tribute To Alice Cooper) (3)
          Don Dokken / Welcome To The Nightmare (A Tribute To Alice Cooper) (4)
          Glenn Hughes / Welcome To The Nightmare (A Tribute To Alice Cooper) (5)
          Joe Elliott / Welcome To The Nightmare (A Tribute To Alice Cooper) (6)
          Ronnie James Dio / Welcome To The Nightmare (A Tribute To Alice Cooper) (7)
          Slash & Roger Daltrey / Welcome To The Nightmare (A Tribute To Alice Cooper) (8)
          Steve Jones & Duff McKagan / Welcome To The Nightmare (A Tribute To Alice Cooper) (9)
          Vince Neil / Welcome To The Nightmare (A Tribute To Alice Cooper) (10)
--------------------------------------------------------------------------------

DR         Peak         RMS     Duration Track
--------------------------------------------------------------------------------
DR12      -0.62 dB   -15.02 dB      4:46 05-Black Widow
DR11      -1.40 dB   -13.72 dB      3:58 01-School's Out
DR12      -0.69 dB   -13.49 dB      4:34 07-Go To Hell
DR11      -0.05 dB   -12.67 dB      5:09 09-Eighteen
DR12      -0.91 dB   -14.92 dB      5:41 08-Only Women Bleed
DR11      -1.15 dB   -13.07 dB      3:19 06-Under My Wheels
DR12      -0.33 dB   -13.89 dB      5:10 03-Welcome To My Nightmare
DR11      -1.57 dB   -13.82 dB      3:38 02-No More Mr. Nice Guy
DR12      -0.71 dB   -13.28 dB      3:58 10-Elected
DR11      -2.18 dB   -14.34 dB      4:01 04-Cold Ethyl
--------------------------------------------------------------------------------

Number of tracks:  10
Official DR value: DR11

Samplerate:        44100 Hz
Channels:          2
Bits per sample:   16
Bitrate:           913 kbps
Codec:             FLAC
================================================================================



HI-RES
------

foobar2000 1.6 / Dynamic Range Meter 1.1.1
log date: 2021-02-06 17:54:47

--------------------------------------------------------------------------------
Analyzed: Bruce Dickinson / Welcome To The Nightmare (A Tribute To Alice Cooper) (1)
          Dave Mustaine / Welcome To The Nightmare (A Tribute To Alice Cooper) (2)
          Dee Snider / Welcome To The Nightmare (A Tribute To Alice Cooper) (3)
          Don Dokken / Welcome To The Nightmare (A Tribute To Alice Cooper) (4)
          Glenn Hughes / Welcome To The Nightmare (A Tribute To Alice Cooper) (5)
          Joe Elliott / Welcome To The Nightmare (A Tribute To Alice Cooper) (6)
          Ronnie James Dio / Welcome To The Nightmare (A Tribute To Alice Cooper) (7)
          Slash & Roger Daltrey / Welcome To The Nightmare (A Tribute To Alice Cooper) (8)
          Steve Jones & Duff McKagan / Welcome To The Nightmare (A Tribute To Alice Cooper) (9)
          Vince Neil / Welcome To The Nightmare (A Tribute To Alice Cooper) (10)
--------------------------------------------------------------------------------

DR         Peak         RMS     Duration Track
--------------------------------------------------------------------------------
DR12      -0.58 dB   -15.02 dB      4:46 05-Black Widow
DR11      -1.38 dB   -13.72 dB      3:58 01-School's Out
DR12      -0.42 dB   -13.48 dB      4:34 07-Go To Hell
DR11      -0.05 dB   -12.66 dB      5:09 09-Eighteen
DR12      -0.91 dB   -14.92 dB      5:41 08-Only Women Bleed
DR10      -1.01 dB   -13.07 dB      3:19 06-Under My Wheels
DR13      -0.05 dB   -13.89 dB      5:10 03-Welcome To My Nightmare
DR11      -1.56 dB   -13.82 dB      3:38 02-No More Mr. Nice Guy
DR12      -0.61 dB   -13.28 dB      3:58 10-Elected
DR11      -2.15 dB   -14.33 dB      4:01 04-Cold Ethyl
--------------------------------------------------------------------------------

Number of tracks:  10
Official DR value: DR11

Samplerate:        96000 Hz
Channels:          2
Bits per sample:   24
Bitrate:           3096 kbps
Codec:             FLAC
================================================================================




Create a new paste based on this one


Comments: