[ create a new paste ] login | about

Link: http://codepad.org/jY0bGUCE    [ raw code | fork ]

Plain Text, pasted on Feb 19:
foobar2000 1.5 / Dynamic Range Meter 1.1.1
log date: 2020-02-19 18:32:14

--------------------------------------------------------------------------------
Analyzed: Boston / Boston
--------------------------------------------------------------------------------

DR         Peak         RMS     Duration Track
--------------------------------------------------------------------------------
DR11      -0.58 dB   -14.86 dB      4:43 01-More Than A Feeling
DR11      -0.90 dB   -14.23 dB      5:01 02-Peace Of Mind
DR11      -0.05 dB   -14.39 dB      7:47 03-Foreplay - Long Time
DR12      -0.61 dB   -14.44 dB      2:59 04-Rock & Roll Band
DR11      -0.05 dB   -12.96 dB      4:19 05-Smokin'
DR11      -1.60 dB   -15.47 dB      4:12 06-Hitch A Ride
DR10      -0.58 dB   -13.65 dB      3:48 07-Something About You
DR11      -1.50 dB   -15.82 dB      4:43 08-Let Me Take You Home Tonight
--------------------------------------------------------------------------------

Number of tracks:  8
Official DR value: DR11

Samplerate:        96000 Hz
Channels:          2
Bits per sample:   24
Bitrate:           3136 kbps
Codec:             FLAC
================================================================================




Create a new paste based on this one


Comments: