[ create a new paste ] login | about

Link: http://codepad.org/jdIZ3Gts    [ raw code | fork ]

Plain Text, pasted on Dec 3:
foobar2000 1.2.2 / Dynamic Range Meter 1.1.1
log date: 2013-02-22 15:42:17

--------------------------------------------------------------------------------
Analyzed: Patrick Williams & Ultimate Mancini Orchestra, Joey DeFrancesco / Ultimate Mancini (Hybrid SACD) (1)
          Patrick Williams & Ultimate Mancini Orchestra, Michael Lang / Ultimate Mancini (Hybrid SACD) (2-3)
          Patrick Williams & Ultimate Mancini Orchestra, Monica Mancini, Kenny Rankin, Tom Scott / Ultimate Mancini (Hybrid SACD) (4)
          Patrick Williams & Ultimate Mancini Orchestra, Monica Mancini, Michael Lang / Ultimate Mancini (Hybrid SACD) (5)
          Patrick Williams & Ultimate Mancini Orchestra, Monica Mancini, Tom Scott / Ultimate Mancini (Hybrid SACD) (6)
          Patrick Williams & Ultimate Mancini Orchestra, Monica Mancini / Ultimate Mancini (Hybrid SACD) (7-13)
          Patrick Williams & Ultimate Mancini Orchestra, Plas Johnson, Gary Burton, Joey DeFrancesco / Ultimate Mancini (Hybrid SACD) (14)
          Patrick Williams & Ultimate Mancini Orchestra, Stevie Wonder, Take 6 / Ultimate Mancini (Hybrid SACD) (15)
          Patrick Williams & Ultimate Mancini Orchestra, Tom Scott / Ultimate Mancini (Hybrid SACD) (16)
          Patrick Williams & Ultimate Mancini Orchestra / Ultimate Mancini (Hybrid SACD) (17-18)
--------------------------------------------------------------------------------

DR         Peak         RMS     Duration Track
--------------------------------------------------------------------------------
DR13      -4.09 dB   -22.02 dB      2:47 12-Mr. Lucky
DR12      -8.44 dB   -24.05 dB      1:57 14-Movie Medley: Life In A Looking Glass
DR12      -8.24 dB   -24.80 dB      2:54 16-Movie Medley: It's Easy To Say
DR11      -3.67 dB   -17.42 dB      3:19 08-Peter Gunn Suite: Dreamsville
DR11      -9.15 dB   -25.22 dB      4:14 18-Soldier In The Rain
DR11      -7.59 dB   -21.57 dB      3:26 05-Moment To Moment
DR12      -6.82 dB   -22.67 dB      3:56 03-Two For The Road
DR9       -7.80 dB   -20.96 dB      4:15 06-Days Of Wine And Roses
DR11     -10.22 dB   -24.87 dB      2:42 09-Dear Heart
DR11      -7.13 dB   -21.67 dB      3:03 11-Anywhere The Heart Goes (Meggie's Theme)
DR11      -7.97 dB   -23.58 dB      4:42 13-Whistling Away The Dark
DR11      -7.28 dB   -21.57 dB      2:24 15-Movie Medley: Crazy World
DR11      -8.91 dB   -23.29 dB      3:09 17-Music On The Way
DR16      -0.01 dB   -19.99 dB      5:18 01-The Pink Panther Theme
DR11      -7.06 dB   -21.34 dB      3:10 04-Moon River
DR15      -0.02 dB   -18.34 dB      2:08 07-Peter Gunn Suite: Peter Gunn Theme
DR15      -0.91 dB   -18.17 dB      2:59 02-Charade
DR11      -5.24 dB   -20.43 dB      2:40 10-The Thorn Birds Theme
--------------------------------------------------------------------------------

Number of tracks:  18
Official DR value: DR12

Samplerate:        88200 Hz
Channels:          2
Bits per sample:   24
Bitrate:           2503 kbps
Codec:             FLAC
================================================================================




Create a new paste based on this one


Comments: