[ create a new paste ] login | about

Link: http://codepad.org/jeR0KNUx    [ raw code | fork ]

Plain Text, pasted on Nov 4:
foobar2000 1.3.17 / Dynamic Range Meter 1.1.1
log date: 2018-11-03 16:20:47

--------------------------------------------------------------------------------
Analyzed: Eagles / Legacy
--------------------------------------------------------------------------------

DR         Peak         RMS     Duration Track
--------------------------------------------------------------------------------
DR11      -0.08 dB   -12.49 dB      3:26 107-Take It Easy (Single Version) [Remastered]
DR11      -0.45 dB   -13.76 dB      3:54 108-Get You In The Mood (Remastered)
DR10      -0.10 dB   -11.49 dB      3:35 109-Outlaw Man (Single Version) [Remastered]
DR9       -1.59 dB   -12.57 dB      3:32 110-Best Of My Love (Single Edit) [Remastered]
DR12      -0.10 dB   -13.42 dB      3:36 111-One Of These Nights (Single Edit) [Remastered]
DR11      -0.11 dB   -13.50 dB      4:16 112-Lyin' Eyes (Single Edit) [Remastered]
DR11      -0.10 dB   -14.36 dB      3:49 113-Take It To The Limit (Single Edit) [Remastered]
DR13      -0.10 dB   -14.92 dB      2:59 114-Please Come Home For Christmas (Single Version) [Remastered]
DR11      -0.10 dB   -13.71 dB      4:02 115-Funky New Year (Remastered)
DR10      -0.06 dB   -13.14 dB      4:17 116-Hole In The World (Remastered)
--------------------------------------------------------------------------------

Number of tracks:  10
Official DR value: DR11

Samplerate:        96000 Hz
Channels:          2
Bits per sample:   24
Bitrate:           2928 kbps
Codec:             FLAC
================================================================================




Create a new paste based on this one


Comments: