[ create a new paste ] login | about

Link: http://codepad.org/jm0FTkoS    [ raw code | fork ]

Plain Text, pasted on Oct 31:
foobar2000 1.3.17 / Dynamic Range Meter 1.1.1
log date: 2018-10-31 07:04:40

--------------------------------------------------------------------------------
Analyzed: ? / REM
--------------------------------------------------------------------------------

DR         Peak         RMS     Duration Track
--------------------------------------------------------------------------------
DR14       0.00 dB   -18.91 dB      4:32 01-Lf-Rf-Ls-Rs 24/48000 + C-LFE 24/48000
DR13      -0.74 dB   -17.88 dB      3:50 02-Lf-Rf-Ls-Rs 24/48000 + C-LFE 24/48000
DR13       0.00 dB   -16.59 dB      4:09 03-Lf-Rf-Ls-Rs 24/48000 + C-LFE 24/48000
DR13       0.00 dB   -17.89 dB      5:21 04-Lf-Rf-Ls-Rs 24/48000 + C-LFE 24/48000
DR13      -0.65 dB   -21.65 dB      2:16 05-Lf-Rf-Ls-Rs 24/48000 + C-LFE 24/48000
DR10      -2.63 dB   -19.03 dB      4:21 06-Lf-Rf-Ls-Rs 24/48000 + C-LFE 24/48000
DR14       0.00 dB   -18.44 dB      3:18 07-Lf-Rf-Ls-Rs 24/48000 + C-LFE 24/48000
DR13       0.00 dB   -16.08 dB      4:27 08-Lf-Rf-Ls-Rs 24/48000 + C-LFE 24/48000
DR12      -0.64 dB   -20.06 dB      3:17 09-Lf-Rf-Ls-Rs 24/48000 + C-LFE 24/48000
DR13       0.00 dB   -17.33 dB      5:14 10-Lf-Rf-Ls-Rs 24/48000 + C-LFE 24/48000
DR12      -1.25 dB   -18.89 dB      4:18 11-Lf-Rf-Ls-Rs 24/48000 + C-LFE 24/48000
DR13       0.00 dB   -17.65 dB      3:51 12-Lf-Rf-Ls-Rs 24/48000 + C-LFE 24/48000
DR0       -1.#J dB    -1.#J dB      0:01 13-Lf-Rf-Ls-Rs 24/48000 + C-LFE 24/48000
--------------------------------------------------------------------------------

Number of tracks:  13
Official DR value: DR12

Samplerate:        48000 Hz
Channels:          6
Bits per sample:   24
Bitrate:           6912 kbps
Codec:             MLP
================================================================================

--------------------------------------------------------------------------------
Analyzed: ? / REM
--------------------------------------------------------------------------------

DR         Peak         RMS     Duration Track
--------------------------------------------------------------------------------
DR11      -0.15 dB   -14.30 dB      4:31 14-L-R 24/48000
DR11      -0.08 dB   -12.72 dB      3:51 15-L-R 24/48000
DR11       0.00 dB   -11.88 dB      4:09 16-L-R 24/48000
DR10      -0.09 dB   -13.15 dB      5:20 17-L-R 24/48000
DR12      -0.15 dB   -16.04 dB      2:16 18-L-R 24/48000
DR11       0.00 dB   -13.10 dB      4:22 19-L-R 24/48000
DR11       0.00 dB   -13.22 dB      3:18 20-L-R 24/48000
DR10       0.00 dB   -11.44 dB      4:27 21-L-R 24/48000
DR12       0.00 dB   -13.74 dB      3:17 22-L-R 24/48000
DR11       0.00 dB   -12.39 dB      5:14 23-L-R 24/48000
DR11      -0.23 dB   -13.09 dB      4:18 24-L-R 24/48000
DR10       0.00 dB   -12.20 dB      3:53 25-L-R 24/48000
DR0       -1.#J dB    -1.#J dB      0:01 26-L-R 24/48000
--------------------------------------------------------------------------------

Number of tracks:  13
Official DR value: DR10

Samplerate:        48000 Hz
Channels:          2
Bits per sample:   24
Bitrate:           2304 kbps
Codec:             MLP
================================================================================




Create a new paste based on this one


Comments: