[ create a new paste ] login | about

Link: http://codepad.org/joK5HDTb    [ raw code | fork ]

Plain Text, pasted on May 8:
foobar2000 1.4.1 / Dynamic Range Meter 1.1.1
log date: 2019-05-07 19:13:38

--------------------------------------------------------------------------------
Analyzed: ? / ?
--------------------------------------------------------------------------------

DR         Peak         RMS     Duration Track
--------------------------------------------------------------------------------
DR12      -5.42 dB   -20.43 dB      9:09 01-SO WHAT
DR12      -4.66 dB   -20.89 dB      8:09 02-WALKIN'
DR13      -4.19 dB   -20.89 dB     11:08 03-JOSHUA / GO-GO (Theme and Announcement)
DR13      -3.27 dB   -20.03 dB      6:19 04-FOUR
DR13      -3.00 dB   -19.97 dB      7:47 05-SEVEN STEPS TO HEAVEN
DR13      -1.80 dB   -20.56 dB     11:25 06-THERE IS NO GREATER LOVE / GO-GO (Theme and Announcement)
--------------------------------------------------------------------------------

Number of tracks:  6
Official DR value: DR13

Samplerate:        2822400 Hz / PCM Samplerate: 176400 Hz
Channels:          2
Bits per sample:   1
Bitrate:           5645 kbps
Codec:             DSD64
================================================================================




Create a new paste based on this one


Comments: