[ create a new paste ] login | about

Link: http://codepad.org/jpSX8hlJ    [ raw code | fork ]

Plain Text, pasted on Aug 26:
EAC extraction logfile from 2. June 2007, 17:31 for CD
The Nat ''King'' Cole Trio / The Complete Capitol Recordings Of The Nat ''king'' Cole Trio - Disc 07

Used drive  : HL-DT-STDVD-ROM GDR8164B   Adapter: 0  ID: 1
Read mode   : Secure with NO C2, accurate stream, disable cache
Read offset correction : 102
Overread into Lead-In and Lead-Out : No

Used output format : C:\Programmi\Exact Audio Copy\flac.exe   (User Defined Encoder)
                     128 kBit/s
                     Additional command line options : -V -8 -T "artist=%a" -T "title=%t" -T "album=%g" -T "date=%y" -T "tracknumber=%n" -T "genre=%m" %s                  

Other options      : 
    Fill up missing offset samples with silence : Yes
    Delete leading and trailing silent blocks : No
    Installed external ASPI interface


Track  1
     Filename D:\TORRENTS\Nat King Cole 2 - The Complete Capitol Recordings of the N.K.C. Trio (1991) [FLAC] {Mosaic MD18 - 138}\CD 7\01 - But She's My Buddy's Chick.wav

     Pre-gap length  0:00:02.42

     Peak level 93.7 %
     Track quality 100.0 %
     Test CRC E17F09DD
     Copy CRC E17F09DD
     Copy OK

Track  2
     Filename D:\TORRENTS\Nat King Cole 2 - The Complete Capitol Recordings of the N.K.C. Trio (1991) [FLAC] {Mosaic MD18 - 138}\CD 7\02 - You Call It Madness.wav

     Pre-gap length  0:00:02.36

     Peak level 80.2 %
     Track quality 99.9 %
     Test CRC 8B4E5FC9
     Copy CRC 8B4E5FC9
     Copy OK

Track  3
     Filename D:\TORRENTS\Nat King Cole 2 - The Complete Capitol Recordings of the N.K.C. Trio (1991) [FLAC] {Mosaic MD18 - 138}\CD 7\03 - Homeward Bound.wav

     Pre-gap length  0:00:02.36

     Peak level 89.8 %
     Track quality 100.0 %
     Test CRC 2761E162
     Copy CRC 2761E162
     Copy OK

Track  4
     Filename D:\TORRENTS\Nat King Cole 2 - The Complete Capitol Recordings of the N.K.C. Trio (1991) [FLAC] {Mosaic MD18 - 138}\CD 7\04 - Chant of the Blues (Dog-Gone Unlucky Blues).wav

     Pre-gap length  0:00:02.29

     Peak level 69.5 %
     Track quality 99.9 %
     Test CRC 45359911
     Copy CRC 45359911
     Copy OK

Track  5
     Filename D:\TORRENTS\Nat King Cole 2 - The Complete Capitol Recordings of the N.K.C. Trio (1991) [FLAC] {Mosaic MD18 - 138}\CD 7\05 - The Christmas Song.wav

     Pre-gap length  0:00:02.66

     Peak level 72.1 %
     Track quality 100.0 %
     Test CRC 281644FC
     Copy CRC 281644FC
     Copy OK

Track  6
     Filename D:\TORRENTS\Nat King Cole 2 - The Complete Capitol Recordings of the N.K.C. Trio (1991) [FLAC] {Mosaic MD18 - 138}\CD 7\06 - You Should Have Told Me.wav

     Pre-gap length  0:00:02.66

     Peak level 76.7 %
     Track quality 100.0 %
     Test CRC 8B5986EA
     Copy CRC 8B5986EA
     Copy OK

Track  7
     Filename D:\TORRENTS\Nat King Cole 2 - The Complete Capitol Recordings of the N.K.C. Trio (1991) [FLAC] {Mosaic MD18 - 138}\CD 7\07 - The Best Man.wav

     Pre-gap length  0:00:02.73

     Peak level 89.7 %
     Track quality 100.0 %
     Test CRC 23433E59
     Copy CRC 23433E59
     Copy OK

Track  8
     Filename D:\TORRENTS\Nat King Cole 2 - The Complete Capitol Recordings of the N.K.C. Trio (1991) [FLAC] {Mosaic MD18 - 138}\CD 7\08 - The Christmas Song (ver).wav

     Pre-gap length  0:00:02.40

     Peak level 93.7 %
     Track quality 100.0 %
     Test CRC E152A52B
     Copy CRC E152A52B
     Copy OK

Track  9
     Filename D:\TORRENTS\Nat King Cole 2 - The Complete Capitol Recordings of the N.K.C. Trio (1991) [FLAC] {Mosaic MD18 - 138}\CD 7\09 - You Should Have Told Me (A2).wav

     Pre-gap length  0:00:02.29

     Peak level 85.5 %
     Track quality 100.0 %
     Test CRC 0122CFF5
     Copy CRC 0122CFF5
     Copy OK

Track 10
     Filename D:\TORRENTS\Nat King Cole 2 - The Complete Capitol Recordings of the N.K.C. Trio (1991) [FLAC] {Mosaic MD18 - 138}\CD 7\10 - (I Love You) For Sentimental Reasons.wav

     Pre-gap length  0:00:02.13

     Peak level 90.3 %
     Track quality 99.9 %
     Test CRC CEF109FB
     Copy CRC CEF109FB
     Copy OK

Track 11
     Filename D:\TORRENTS\Nat King Cole 2 - The Complete Capitol Recordings of the N.K.C. Trio (1991) [FLAC] {Mosaic MD18 - 138}\CD 7\11 - In The Cool of the Evening.wav

     Pre-gap length  0:00:02.37

     Peak level 83.8 %
     Track quality 100.0 %
     Test CRC 8334C841
     Copy CRC 8334C841
     Copy OK

Track 12
     Filename D:\TORRENTS\Nat King Cole 2 - The Complete Capitol Recordings of the N.K.C. Trio (1991) [FLAC] {Mosaic MD18 - 138}\CD 7\12 - That's the Beginning of the End.wav

     Pre-gap length  0:00:02.29

     Peak level 84.2 %
     Track quality 100.0 %
     Test CRC 462F5834
     Copy CRC 462F5834
     Copy OK

Track 13
     Filename D:\TORRENTS\Nat King Cole 2 - The Complete Capitol Recordings of the N.K.C. Trio (1991) [FLAC] {Mosaic MD18 - 138}\CD 7\13 - If You Don't Like My Apples.wav

     Pre-gap length  0:00:02.30

     Peak level 93.7 %
     Track quality 100.0 %
     Test CRC FA33D6D9
     Copy CRC FA33D6D9
     Copy OK

Track 14
     Filename D:\TORRENTS\Nat King Cole 2 - The Complete Capitol Recordings of the N.K.C. Trio (1991) [FLAC] {Mosaic MD18 - 138}\CD 7\14 - Smoke Gets In Your Eyes.wav

     Pre-gap length  0:00:02.33

     Peak level 87.8 %
     Track quality 100.0 %
     Test CRC 6274C163
     Copy CRC 6274C163
     Copy OK

Track 15
     Filename D:\TORRENTS\Nat King Cole 2 - The Complete Capitol Recordings of the N.K.C. Trio (1991) [FLAC] {Mosaic MD18 - 138}\CD 7\15 - I Want to Thank You Folks.wav

     Pre-gap length  0:00:01.93

     Peak level 90.2 %
     Track quality 100.0 %
     Test CRC 1E09803A
     Copy CRC 1E09803A
     Copy OK

Track 16
     Filename D:\TORRENTS\Nat King Cole 2 - The Complete Capitol Recordings of the N.K.C. Trio (1991) [FLAC] {Mosaic MD18 - 138}\CD 7\16 - You're the Cream in My Coffee.wav

     Pre-gap length  0:00:02.46

     Peak level 84.8 %
     Track quality 100.0 %
     Test CRC 666A4874
     Copy CRC 666A4874
     Copy OK

Track 17
     Filename D:\TORRENTS\Nat King Cole 2 - The Complete Capitol Recordings of the N.K.C. Trio (1991) [FLAC] {Mosaic MD18 - 138}\CD 7\17 - Come In Out of the Rain.wav

     Pre-gap length  0:00:02.73

     Peak level 93.7 %
     Track quality 100.0 %
     Test CRC 761036C0
     Copy CRC 761036C0
     Copy OK

Track 18
     Filename D:\TORRENTS\Nat King Cole 2 - The Complete Capitol Recordings of the N.K.C. Trio (1991) [FLAC] {Mosaic MD18 - 138}\CD 7\18 - You Don't Learn That in School.wav

     Pre-gap length  0:00:02.60

     Peak level 78.6 %
     Track quality 99.9 %
     Test CRC 0405F97C
     Copy CRC 0405F97C
     Copy OK

No errors occured


End of status report



Create a new paste based on this one


Comments: