[ create a new paste ] login | about

Link: http://codepad.org/jr9gpWCn    [ raw code | fork ]

Plain Text, pasted on Oct 12:
foobar2000 1.3.17 / Dynamic Range Meter 1.1.1
log date: 2018-10-12 14:35:38

--------------------------------------------------------------------------------
Analyzed: Nazareth / Tattooed on My Brain
--------------------------------------------------------------------------------

DR         Peak         RMS     Duration Track
--------------------------------------------------------------------------------
DR5       -0.20 dB    -6.28 dB      3:00 01-Never Dance with the Devil
DR5       -0.20 dB    -6.73 dB      2:50 02-Tattooed on My Brain
DR5       -0.20 dB    -6.02 dB      3:42 03-State of Emergency
DR6       -0.20 dB    -7.02 dB      4:06 04-Rubik's Romance
DR5       -0.20 dB    -6.42 dB      4:19 05-Pole to Pole
DR5       -0.20 dB    -6.96 dB      3:49 06-Push
DR5       -0.20 dB    -6.80 dB      5:31 07-The Secret is Out
DR5       -0.20 dB    -6.19 dB      3:37 08-Don't Throw Your Love Away
DR6       -0.20 dB    -6.43 dB      3:03 09-Crazy Molly
DR6       -0.20 dB    -7.16 dB      3:48 10-Silent Symphony
DR6       -0.20 dB    -6.56 dB      4:01 11-What Goes Around
DR5       -0.20 dB    -7.07 dB      3:56 12-Change
DR7       -0.20 dB    -9.88 dB      6:10 13-You Call Me
--------------------------------------------------------------------------------

Number of tracks:  13
Official DR value: DR6

Samplerate:        44100 Hz
Channels:          2
Bits per sample:   16
Bitrate:           726 kbps
Codec:             FLAC
================================================================================




Create a new paste based on this one


Comments: