[ create a new paste ] login | about

Link: http://codepad.org/jrkM7gR2    [ raw code | fork ]

Plain Text, pasted on Dec 2:
foobar2000 1.6 / Dynamic Range Meter 1.1.1
log date: 2020-12-02 05:19:05

--------------------------------------------------------------------------------
Analyzed: Floyd Cramer / Class of 73 to 75
--------------------------------------------------------------------------------

DR         Peak         RMS     Duration Track
--------------------------------------------------------------------------------
DR9       -7.08 dB   -27.71 dB      2:57 01-My Love  
DR9       -7.15 dB   -28.12 dB      3:44 02-And I Love You So  
DR9       -8.82 dB   -28.39 dB      3:17 03-Killing Me Softly with His Song  
DR9       -8.40 dB   -27.58 dB      3:33 04-Yesterday Once More  
DR9       -7.80 dB   -27.52 dB      3:26 05-Lets Pretend  
DR9       -7.38 dB   -26.13 dB      2:46 06-Will it Go Round in Circles  
DR9       -5.65 dB   -25.67 dB      2:51 07-You are the Sunshine of My Life  
DR9       -7.62 dB   -27.02 dB      2:39 08-The Morning After  
DR9       -6.94 dB   -25.73 dB      2:47 09-Kodachrome  
DR9       -7.20 dB   -26.48 dB      3:20 10-Tie a Yellow Ribbon Round the Old Oak Tree 
DR10      -7.60 dB   -27.74 dB      2:36 11-(Hey, Wont You Play) Another Somebody Done Somebody Wrong Song 
DR8       -6.17 dB   -25.57 dB      2:43 12-The Last Farewell  
DR9       -5.37 dB   -24.36 dB      3:29 13-Have You Never Been Mellow  
DR10      -7.02 dB   -26.54 dB      3:50 14-Mandy 
DR9       -8.92 dB   -30.06 dB      3:28 15-I Honestly Love You  
DR10      -5.52 dB   -27.15 dB      3:17 16-My Melody of Love  
DR9       -7.74 dB   -26.62 dB      2:53 17-Sunshine on My Shoulders  
DR10      -6.50 dB   -27.82 dB      4:10 18-Please Come to Boston  
DR9       -6.33 dB   -25.40 dB      3:33 19-Seasons in the Sun  
DR9       -6.70 dB   -26.66 dB      3:07 20-Time in a Bottle  
--------------------------------------------------------------------------------

Number of tracks:  20
Official DR value: DR9

Samplerate:        2822400 Hz / PCM Samplerate: 176400 Hz
Channels:          6
Bits per sample:   1
Bitrate:           16934 kbps
Codec:             DST64
================================================================================

--------------------------------------------------------------------------------
Analyzed: Floyd Cramer / Class of 73 to 75
--------------------------------------------------------------------------------

DR         Peak         RMS     Duration Track
--------------------------------------------------------------------------------
DR13      -7.84 dB   -23.91 dB      2:57 01-My Love  
DR13      -8.74 dB   -25.20 dB      3:44 02-And I Love You So  
DR13      -8.86 dB   -24.93 dB      3:17 03-Killing Me Softly with His Song  
DR12      -7.63 dB   -23.37 dB      3:33 04-Yesterday Once More  
DR12      -7.84 dB   -23.23 dB      3:26 05-Lets Pretend  
DR12      -7.39 dB   -21.30 dB      2:46 06-Will it Go Round in Circles  
DR12      -7.12 dB   -21.84 dB      2:51 07-You are the Sunshine of My Life  
DR13      -7.12 dB   -22.98 dB      2:39 08-The Morning After  
DR12      -8.19 dB   -22.42 dB      2:47 09-Kodachrome  
DR12      -7.21 dB   -23.12 dB      3:20 10-Tie a Yellow Ribbon Round the Old Oak Tree 
DR13      -8.59 dB   -24.62 dB      2:36 11-(Hey, Wont You Play) Another Somebody Done Somebody Wrong Song 
DR11     -10.05 dB   -23.05 dB      2:43 12-The Last Farewell  
DR12      -8.82 dB   -22.67 dB      3:29 13-Have You Never Been Mellow  
DR12      -8.89 dB   -23.45 dB      3:50 14-Mandy 
DR12     -11.32 dB   -27.96 dB      3:28 15-I Honestly Love You  
DR12      -9.73 dB   -23.75 dB      3:17 16-My Melody of Love  
DR13      -9.89 dB   -25.00 dB      2:53 17-Sunshine on My Shoulders  
DR12      -8.81 dB   -23.93 dB      4:10 18-Please Come to Boston  
DR12      -9.16 dB   -23.68 dB      3:33 19-Seasons in the Sun  
DR12      -7.85 dB   -23.83 dB      3:07 20-Time in a Bottle  
--------------------------------------------------------------------------------

Number of tracks:  20
Official DR value: DR12

Samplerate:        2822400 Hz / PCM Samplerate: 176400 Hz
Channels:          2
Bits per sample:   1
Bitrate:           5645 kbps
Codec:             DST64
================================================================================




Create a new paste based on this one


Comments: