[ create a new paste ] login | about

Link: http://codepad.org/k2SqpDLU    [ raw code | fork ]

Plain Text, pasted on Nov 27:
foobar2000 1.2.8 / Dynamic Range Meter 1.1.1
log date: 2013-10-08 16:18:58

--------------------------------------------------------------------------------
Analyzed: Sting / Brand New Day (2004 Hybrid SACD)
--------------------------------------------------------------------------------

DR         Peak         RMS     Duration Track
--------------------------------------------------------------------------------
DR15      -0.26 dB   -18.54 dB      5:57 01-A Thousand Years
DR13      -0.41 dB   -17.63 dB      4:45 02-Desert Rose
DR15      -0.11 dB   -17.66 dB      5:05 03-Big Lie, Small World
DR16      -0.01 dB   -19.25 dB      5:05 04-After The Rain Has Fallen
DR15      -0.34 dB   -19.02 dB      5:16 05-Perfect Love...Gone Wrong
DR16      -0.51 dB   -18.67 dB      4:46 06-Tomorrow We'll See
DR13      -6.11 dB   -31.03 dB      0:20 07-Prelude To The End Of The Game
DR14      -0.59 dB   -18.14 dB      5:38 08-Fill Her Up
DR13      -0.50 dB   -18.59 dB      5:29 09-Ghost Story
DR16      -0.56 dB   -18.01 dB      6:15 10-Brand New Day
--------------------------------------------------------------------------------

Number of tracks:  10
Official DR value: DR14

Samplerate:        88200 Hz
Channels:          6
Bits per sample:   24
Bitrate:           6883 kbps
Codec:             FLAC
================================================================================




Create a new paste based on this one


Comments: