[ create a new paste ] login | about

Link: http://codepad.org/k8sYJlhs    [ raw code | fork ]

Plain Text, pasted on Sep 17:
1
2
3
4
5
6
7
8
9
10
11
12
13
14
15
16
17
18
19
20
21
22
23
24
25
26
27
28
29
30
31
32
33
34
35
36
37
38
39
40
41
42
43
44
45
46
47
48
49
50
51
52
53
54
55
56
57
58
59
60
61
62
63
64
65
66
67
68
69
70
71
72
73
74
75
76
77
78
79
80
81
82
83
84
85
86
87
88
89
90
91
92
93
94
95
96
97
98
99
100
101
102
103
104
105
106
107
108
109
110
111
112
113
114
115
116
117
118
119
120
121
122
123
124
125
126
127
128
129
130
131
132
133
134
135
136
137
138
139
140
141
142
143
144
145
146
147
148
149
150
151
152
153
154
155
156
157
158
159
160
161
162
163
164
165
166
167
168
169
170
171
172
173
174
175
176
177
178
179
180
181
182
183
184
185
186
187
188
189
190
191
192
193
194
195
196
197
198
199
200
201
202
203
204
205
206
207
208
209
210
211
212
213
214
215
216
217
218
219
220
221
222
223
224
225
226
227
228
229
230
231
232
233
234
235
236
237
238
239
240
241
242
243
244
245
246
247
248
249
250
251
252
253
254
255
256
257
258
259
260
261
262
263
264
265
266
267
268
269
270
271
272
273
274
275
276
277
278
279
280
281
282
283
284
285
286
287
288
289
290
291
292
293
294
295
296
297
298
299
300
301
302
303
304
305
306
307
308
309
310
311
312
313
314
315
316
317
318
319
320
321
322
323
324
325
326
327
328
329
330
331
332
333
334
335
336
337
338
339
340
341
342
343
344
345
346
347
348
349
350
351
352
353
354
355
356
357
358
359
360
361
362
363
364
365
366
367
368
369
370
371
372
373
374
375
376
377
378
379
380
381
382
383
384
385
386
387
388
389
390
391
392
393
394
395
396
397
398
399
400
401
402
403
404
405
406
CD 1
->
Exact Audio Copy V1.3 from 2. September 2016

EAC extraction logfile from 15. November 2017, 10:15

Ian Dury / New Boots And Panties!! CD1 Original Album

Used drive  : PLEXTOR BD-R  PX-B950SA   Adapter: 1  ID: 1

Read mode               : Secure
Utilize accurate stream : Yes
Defeat audio cache      : Yes
Make use of C2 pointers : No

Read offset correction                      : 6
Overread into Lead-In and Lead-Out          : No
Fill up missing offset samples with silence : Yes
Delete leading and trailing silent blocks   : No
Null samples used in CRC calculations       : Yes
Used interface                              : Native Win32 interface for Win NT & 2000

Used output format : Internal WAV Routines
Sample format      : 44.100 Hz; 16 Bit; Stereo


TOC of the extracted CD

     Track |   Start  |  Length  | Start sector | End sector 
    ---------------------------------------------------------
        1  |  0:00.00 |  4:24.52 |         0    |    19851   
        2  |  4:24.52 |  3:35.36 |     19852    |    36012   
        3  |  8:00.13 |  3:13.20 |     36013    |    50507   
        4  | 11:13.33 |  3:40.19 |     50508    |    67026   
        5  | 14:53.52 |  4:16.74 |     67027    |    86300   
        6  | 19:10.51 |  4:55.52 |     86301    |   108477   
        7  | 24:06.28 |  3:25.01 |    108478    |   123853   
        8  | 27:31.29 |  3:31.15 |    123854    |   139693   
        9  | 31:02.44 |  4:14.29 |    139694    |   158772   
       10  | 35:16.73 |  2:15.28 |    158773    |   168925   


Range status and errors

Selected range

     Filename C:\Ian Dury\1977 New Boots And Panties!! (4CD + LP Box Set Edsel Records 2017)\CD1\Ian Dury - New Boots And Panties!! CD1 Original Album.wav

     Peak level 99.8 %
     Extraction speed 6.5 X
     Range quality 100.0 %
     Test CRC EE6D6910
     Copy CRC EE6D6910
     Copy OK

No errors occurred

 
AccurateRip summary
 
Track  1  not present in database
Track  2  not present in database
Track  3  not present in database
Track  4  not present in database
Track  5  not present in database
Track  6  not present in database
Track  7  not present in database
Track  8  not present in database
Track  9  not present in database
Track 10  not present in database
 
None of the tracks are present in the AccurateRip database

End of status report

---- CUETools DB Plugin V2.1.6

[CTDB TOCID: Zbjwli3sKqhhDKxxVQ31_GBbQos-] found
Submit result: Zbjwli3sKqhhDKxxVQ31_GBbQos- has been confirmed
Track | CTDB Status
  1   | (2/2) Accurately ripped
  2   | (2/2) Accurately ripped
  3   | (2/2) Accurately ripped
  4   | (2/2) Accurately ripped
  5   | (2/2) Accurately ripped
  6   | (2/2) Accurately ripped
  7   | (2/2) Accurately ripped
  8   | (2/2) Accurately ripped
  9   | (2/2) Accurately ripped
 10   | (2/2) Accurately ripped


==== Log checksum 0D76680E62EDD05FC3F20B7F066A59E9BEB63ABFA1A47C6361706D404FB91C89 ====
->
=========================================================================================================================================================
->
CD 2
->
Exact Audio Copy V1.3 from 2. September 2016

EAC extraction logfile from 15. November 2017, 9:44

Ian Dury / New Boots And Panties!! CD2 Bonus Tracks

Used drive  : PLEXTOR BD-R  PX-B950SA   Adapter: 1  ID: 1

Read mode               : Secure
Utilize accurate stream : Yes
Defeat audio cache      : Yes
Make use of C2 pointers : No

Read offset correction                      : 6
Overread into Lead-In and Lead-Out          : No
Fill up missing offset samples with silence : Yes
Delete leading and trailing silent blocks   : No
Null samples used in CRC calculations       : Yes
Used interface                              : Native Win32 interface for Win NT & 2000

Used output format : Internal WAV Routines
Sample format      : 44.100 Hz; 16 Bit; Stereo


TOC of the extracted CD

     Track |   Start  |  Length  | Start sector | End sector 
    ---------------------------------------------------------
        1  |  0:00.00 |  3:06.47 |         0    |    13996   
        2  |  3:06.47 |  2:58.46 |     13997    |    27392   
        3  |  6:05.18 |  2:59.39 |     27393    |    40856   
        4  |  9:04.57 |  3:29.59 |     40857    |    56590   
        5  | 12:34.41 |  4:12.27 |     56591    |    75517   
        6  | 16:46.68 |  2:54.39 |     75518    |    88606   
        7  | 19:41.32 |  4:06.74 |     88607    |   107130   
        8  | 23:48.31 |  5:12.18 |    107131    |   130548   
        9  | 29:00.49 |  3:49.70 |    130549    |   147793   
       10  | 32:50.44 |  4:19.07 |    147794    |   167225   


Range status and errors

Selected range

     Filename C:\Ian Dury\1977 New Boots And Panties!! (4CD + LP Box Set Edsel Records 2017)\CD2\Ian Dury - New Boots And Panties!! CD2 Bonus Tracks.wav

     Peak level 99.8 %
     Extraction speed 6.5 X
     Range quality 100.0 %
     Test CRC BE5ACFB7
     Copy CRC BE5ACFB7
     Copy OK

No errors occurred

 
AccurateRip summary
 
Track  1  not present in database
Track  2  not present in database
Track  3  not present in database
Track  4  not present in database
Track  5  not present in database
Track  6  not present in database
Track  7  not present in database
Track  8  not present in database
Track  9  not present in database
Track 10  not present in database
 
None of the tracks are present in the AccurateRip database

End of status report

---- CUETools DB Plugin V2.1.6

[CTDB TOCID: ueHPP_kclXhZzfkzU_wpHqmcBzs-] found
Submit result: ueHPP_kclXhZzfkzU_wpHqmcBzs- has been confirmed
Track | CTDB Status
  1   | (1/1) Accurately ripped
  2   | (1/1) Accurately ripped
  3   | (1/1) Accurately ripped
  4   | (1/1) Accurately ripped
  5   | (1/1) Accurately ripped
  6   | (1/1) Accurately ripped
  7   | (1/1) Accurately ripped
  8   | (1/1) Accurately ripped
  9   | (1/1) Accurately ripped
 10   | (1/1) Accurately ripped


==== Log checksum 9B5D830E55AA5BA22B7B177F2206F7BFBA451F33158BCACDB8ED786AF384622B ====
->
=========================================================================================================================================================
->
CD 3
->
Exact Audio Copy V1.3 from 2. September 2016

EAC extraction logfile from 15. November 2017, 8:25

Ian Dury / New Boots And Panties!! CD3 Demo Versions

Used drive  : PLEXTOR BD-R  PX-B950SA   Adapter: 1  ID: 1

Read mode               : Secure
Utilize accurate stream : Yes
Defeat audio cache      : Yes
Make use of C2 pointers : No

Read offset correction                      : 6
Overread into Lead-In and Lead-Out          : No
Fill up missing offset samples with silence : Yes
Delete leading and trailing silent blocks   : No
Null samples used in CRC calculations       : Yes
Used interface                              : Native Win32 interface for Win NT & 2000

Used output format : Internal WAV Routines
Sample format      : 44.100 Hz; 16 Bit; Stereo


TOC of the extracted CD

     Track |   Start  |  Length  | Start sector | End sector 
    ---------------------------------------------------------
        1  |  0:00.00 |  4:03.68 |         0    |    18292   
        2  |  4:03.68 |  3:16.17 |     18293    |    33009   
        3  |  7:20.10 |  4:06.44 |     33010    |    51503   
        4  | 11:26.54 |  4:05.73 |     51504    |    69951   
        5  | 15:32.52 |  4:05.43 |     69952    |    88369   
        6  | 19:38.20 |  4:48.05 |     88370    |   109974   
        7  | 24:26.25 |  5:37.59 |    109975    |   135308   
        8  | 30:04.09 |  2:12.16 |    135309    |   145224   
        9  | 32:16.25 |  3:27.21 |    145225    |   160770   
       10  | 35:43.46 |  4:40.47 |    160771    |   181817   
       11  | 40:24.18 |  3:55.26 |    181818    |   199468   
       12  | 44:19.44 |  4:20.49 |    199469    |   219017   
       13  | 48:40.18 |  2:53.67 |    219018    |   232059   
       14  | 51:34.10 |  3:23.50 |    232060    |   247334   
       15  | 54:57.60 |  3:44.61 |    247335    |   264195   
       16  | 58:42.46 |  5:14.65 |    264196    |   287810   
       17  | 63:57.36 |  4:15.22 |    287811    |   306957   


Range status and errors

Selected range

     Filename C:\Ian Dury\1977 New Boots And Panties!! (4CD + LP Box Set Edsel Records 2017)\CD3\Ian Dury - New Boots And Panties!! CD3 Demo Versions.wav

     Peak level 94.3 %
     Extraction speed 7.5 X
     Range quality 100.0 %
     Test CRC 6601AAE3
     Copy CRC 6601AAE3
     Copy OK

No errors occurred

 
AccurateRip summary
 
Track  1  not present in database
Track  2  not present in database
Track  3  not present in database
Track  4  not present in database
Track  5  not present in database
Track  6  not present in database
Track  7  not present in database
Track  8  not present in database
Track  9  not present in database
Track 10  not present in database
Track 11  not present in database
Track 12  not present in database
Track 13  not present in database
Track 14  not present in database
Track 15  not present in database
Track 16  not present in database
Track 17  not present in database
 
None of the tracks are present in the AccurateRip database

End of status report

---- CUETools DB Plugin V2.1.6

[CTDB TOCID: 4JsRuI0gnOmv05.muPOzmXYd3UI-] found
Submit result: 4JsRuI0gnOmv05.muPOzmXYd3UI- has been confirmed
Track | CTDB Status
  1   | (1/1) Accurately ripped
  2   | (1/1) Accurately ripped
  3   | (1/1) Accurately ripped
  4   | (1/1) Accurately ripped
  5   | (1/1) Accurately ripped
  6   | (1/1) Accurately ripped
  7   | (1/1) Accurately ripped
  8   | (1/1) Accurately ripped
  9   | (1/1) Accurately ripped
 10   | (1/1) Accurately ripped
 11   | (1/1) Accurately ripped
 12   | (1/1) Accurately ripped
 13   | (1/1) Accurately ripped
 14   | (1/1) Accurately ripped
 15   | (1/1) Accurately ripped
 16   | (1/1) Accurately ripped
 17   | (1/1) Accurately ripped


==== Log checksum 0ADC3D4778113E06A8EA60E12D1072CA0F1E88E1A8AEBE8EC98B390C61B3FF4D ====
->
=========================================================================================================================================================
->
CD 4
->
Exact Audio Copy V1.3 from 2. September 2016

EAC extraction logfile from 15. November 2017, 7:48

Ian Dury & The Blockheads / New Boots And Panties CD4 Live At The Paris

Used drive  : PLEXTOR BD-R  PX-B950SA   Adapter: 1  ID: 1

Read mode               : Secure
Utilize accurate stream : Yes
Defeat audio cache      : Yes
Make use of C2 pointers : No

Read offset correction                      : 6
Overread into Lead-In and Lead-Out          : No
Fill up missing offset samples with silence : Yes
Delete leading and trailing silent blocks   : No
Null samples used in CRC calculations       : Yes
Used interface                              : Native Win32 interface for Win NT & 2000

Used output format : Internal WAV Routines
Sample format      : 44.100 Hz; 16 Bit; Stereo


TOC of the extracted CD

     Track |   Start  |  Length  | Start sector | End sector 
    ---------------------------------------------------------
        1  |  0:00.00 |  4:22.67 |         0    |    19716   
        2  |  4:22.67 |  4:44.19 |     19717    |    41035   
        3  |  9:07.11 |  6:08.09 |     41036    |    68644   
        4  | 15:15.20 |  4:48.20 |     68645    |    90264   
        5  | 20:03.40 |  4:26.67 |     90265    |   110281   
        6  | 24:30.32 |  4:26.25 |    110282    |   130256   
        7  | 28:56.57 |  6:23.25 |    130257    |   159006   
        8  | 35:20.07 |  3:57.53 |    159007    |   176834   
        9  | 39:17.60 |  4:52.40 |    176835    |   198774   
       10  | 44:10.25 |  4:07.59 |    198775    |   217358   
       11  | 48:18.09 |  9:01.44 |    217359    |   257977   


Range status and errors

Selected range

     Filename C:\Ian Dury\1977 New Boots And Panties!! (4CD + LP Box Set Edsel Records 2017)\CD4\Ian Dury & The Blockheads - New Boots And Panties CD4 Live At The Paris.wav

     Peak level 100.0 %
     Extraction speed 7.3 X
     Range quality 100.0 %
     Test CRC E255027C
     Copy CRC E255027C
     Copy OK

No errors occurred

 
AccurateRip summary
 
Track  1  not present in database
Track  2  not present in database
Track  3  not present in database
Track  4  not present in database
Track  5  not present in database
Track  6  not present in database
Track  7  not present in database
Track  8  not present in database
Track  9  not present in database
Track 10  not present in database
Track 11  not present in database
 
None of the tracks are present in the AccurateRip database

End of status report

---- CUETools DB Plugin V2.1.6

[CTDB TOCID: OPv04.VKJ04SYkyxlKY8B24g.sw-] found
Submit result: OPv04.VKJ04SYkyxlKY8B24g.sw- has been confirmed
Track | CTDB Status
  1   | (1/1) Accurately ripped
  2   | (1/1) Accurately ripped
  3   | (1/1) Accurately ripped
  4   | (1/1) Accurately ripped
  5   | (1/1) Accurately ripped
  6   | (1/1) Accurately ripped
  7   | (1/1) Accurately ripped
  8   | (1/1) Accurately ripped
  9   | (1/1) Accurately ripped
 10   | (1/1) Accurately ripped
 11   | (1/1) Accurately ripped


==== Log checksum 93FBAFAF024A4BF22C13BE57808923F71B2212409BABC943D766C3354B2DF04A ====



Create a new paste based on this one


Comments: