[ create a new paste ] login | about

Link: http://codepad.org/k9ofjkAq    [ raw code | fork ]

Plain Text, pasted on May 20:
Exact Audio Copy V1.1 from 23. June 2015

EAC extraction logfile from 15. May 2016, 14:40

Various Artists / No. 1 Hits of the '50s (CD 3)

Used drive  : hp      CDDVDW SH-216BB   Adapter: 1  ID: 0

Read mode               : Secure
Utilize accurate stream : Yes
Defeat audio cache      : Yes
Make use of C2 pointers : No

Read offset correction                      : 6
Overread into Lead-In and Lead-Out          : No
Fill up missing offset samples with silence : Yes
Delete leading and trailing silent blocks   : No
Null samples used in CRC calculations       : Yes
Used interface                              : Native Win32 interface for Win NT & 2000

Used output format : Internal WAV Routines
Sample format      : 44.100 Hz; 16 Bit; Stereo


TOC of the extracted CD

     Track |   Start  |  Length  | Start sector | End sector 
    ---------------------------------------------------------
        1  |  0:00.00 |  2:33.20 |         0    |    11494   
        2  |  2:33.20 |  2:16.37 |     11495    |    21731   
        3  |  4:49.57 |  2:37.68 |     21732    |    33574   
        4  |  7:27.50 |  2:14.42 |     33575    |    43666   
        5  |  9:42.17 |  3:05.10 |     43667    |    57551   
        6  | 12:47.27 |  2:13.28 |     57552    |    67554   
        7  | 15:00.55 |  2:12.63 |     67555    |    77517   
        8  | 17:13.43 |  2:25.28 |     77518    |    88420   
        9  | 19:38.71 |  2:36.55 |     88421    |   100175   
       10  | 22:15.51 |  1:46.62 |    100176    |   108187   
       11  | 24:02.38 |  2:15.15 |    108188    |   118327   
       12  | 26:17.53 |  2:46.26 |    118328    |   130803   
       13  | 29:04.04 |  2:37.27 |    130804    |   142605   
       14  | 31:41.31 |  2:22.50 |    142606    |   153305   
       15  | 34:04.06 |  2:30.52 |    153306    |   164607   
       16  | 36:34.58 |  2:58.20 |    164608    |   177977   
       17  | 39:33.03 |  2:15.27 |    177978    |   188129   
       18  | 41:48.30 |  2:22.11 |    188130    |   198790   
       19  | 44:10.41 |  3:04.28 |    198791    |   212618   
       20  | 47:14.69 |  2:41.45 |    212619    |   224738   
       21  | 49:56.39 |  2:31.57 |    224739    |   236120   
       22  | 52:28.21 |  2:32.30 |    236121    |   247550   
       23  | 55:00.51 |  3:41.06 |    247551    |   264131   
       24  | 58:41.57 |  2:43.33 |    264132    |   276389   
       25  | 61:25.15 |  2:44.71 |    276390    |   288760   


Range status and errors

Selected range

     Filename C:\Users\Arturs\Desktop\Various Artists - No. 1 Hits of the '50s (CD 3).wav

     Peak level 98.8 %
     Extraction speed 3.1 X
     Range quality 100.0 %
     Test CRC BE8611D1
     Copy CRC BE8611D1
     Copy OK

No errors occurred

 
AccurateRip summary
 
Track  1  accurately ripped (confidence 2)  [CF660115]  (AR v2)
Track  2  accurately ripped (confidence 2)  [1600D145]  (AR v2)
Track  3  accurately ripped (confidence 3)  [B8998F62]  (AR v2)
Track  4  accurately ripped (confidence 2)  [841C7A50]  (AR v2)
Track  5  accurately ripped (confidence 2)  [0496F7E2]  (AR v2)
Track  6  accurately ripped (confidence 2)  [6D817194]  (AR v2)
Track  7  accurately ripped (confidence 2)  [7C98AF72]  (AR v2)
Track  8  accurately ripped (confidence 2)  [71CB4E08]  (AR v2)
Track  9  accurately ripped (confidence 2)  [7092ABDA]  (AR v2)
Track 10  accurately ripped (confidence 2)  [705FDFB1]  (AR v2)
Track 11  accurately ripped (confidence 2)  [6B2B0C6D]  (AR v2)
Track 12  accurately ripped (confidence 2)  [AF337841]  (AR v2)
Track 13  accurately ripped (confidence 2)  [DD514879]  (AR v2)
Track 14  accurately ripped (confidence 2)  [4F56D212]  (AR v2)
Track 15  accurately ripped (confidence 2)  [06475C32]  (AR v2)
Track 16  accurately ripped (confidence 2)  [FE6E1B41]  (AR v2)
Track 17  accurately ripped (confidence 2)  [CBCC8E91]  (AR v2)
Track 18  accurately ripped (confidence 2)  [7B4617B7]  (AR v2)
Track 19  accurately ripped (confidence 2)  [6520225E]  (AR v2)
Track 20  accurately ripped (confidence 2)  [10DE8121]  (AR v2)
Track 21  accurately ripped (confidence 2)  [CFAF0160]  (AR v2)
Track 22  accurately ripped (confidence 2)  [924D4A53]  (AR v2)
Track 23  accurately ripped (confidence 2)  [2F57D9D1]  (AR v2)
Track 24  accurately ripped (confidence 2)  [680A29BB]  (AR v2)
Track 25  accurately ripped (confidence 3)  [B8EF5F04]  (AR v2)
 
All tracks accurately ripped

End of status report

---- CUETools DB Plugin V2.1.6

[CTDB TOCID: tfnqZkrqkOxwfsKdWZH.r2uPSyw-] found
Submit result: tfnqZkrqkOxwfsKdWZH.r2uPSyw- has been confirmed
Track | CTDB Status
  1   | (4/4) Accurately ripped
  2   | (4/4) Accurately ripped
  3   | (4/4) Accurately ripped
  4   | (4/4) Accurately ripped
  5   | (4/4) Accurately ripped
  6   | (4/4) Accurately ripped
  7   | (4/4) Accurately ripped
  8   | (4/4) Accurately ripped
  9   | (4/4) Accurately ripped
 10   | (4/4) Accurately ripped
 11   | (4/4) Accurately ripped
 12   | (4/4) Accurately ripped
 13   | (4/4) Accurately ripped
 14   | (4/4) Accurately ripped
 15   | (4/4) Accurately ripped
 16   | (4/4) Accurately ripped
 17   | (4/4) Accurately ripped
 18   | (4/4) Accurately ripped
 19   | (4/4) Accurately ripped
 20   | (4/4) Accurately ripped
 21   | (4/4) Accurately ripped
 22   | (4/4) Accurately ripped
 23   | (4/4) Accurately ripped
 24   | (4/4) Accurately ripped
 25   | (4/4) Accurately ripped


==== Log checksum DB7B2BC2D29D61A43CF1D79BA9FA72C0984AC1CA673AE0DFECB5F3F01FBB463D ====



Create a new paste based on this one


Comments: