[ create a new paste ] login | about

Link: http://codepad.org/kENukqdQ    [ raw code | fork ]

Plain Text, pasted on Aug 3:
foobar2000 1.3.17 / Dynamic Range Meter 1.1.1
log date: 2018-08-03 14:06:35

--------------------------------------------------------------------------------
Analyzed: Bon Jovi / Bounce
--------------------------------------------------------------------------------

DR         Peak         RMS     Duration Track
--------------------------------------------------------------------------------
DR10      -1.27 dB   -12.25 dB      3:56 01-Undivided
DR7       -3.35 dB   -12.01 dB      3:00 02-Everyday
DR11      -1.23 dB   -13.51 dB      4:48 03-The Distance
DR9       -1.36 dB   -12.84 dB      4:54 04-Joey
DR7       -3.25 dB   -11.43 dB      3:30 05-Misunderstood
DR9       -1.74 dB   -13.69 dB      3:46 06-All About Lovin' You
DR12      -0.01 dB   -14.01 dB      3:54 07-Hook Me Up
DR11      -1.35 dB   -15.19 dB      5:50 08-Right Side Of Wrong
DR12      -1.17 dB   -14.91 dB      4:10 09-Love Me Back To Life
DR11      -1.95 dB   -15.75 dB      3:50 10-You Had Me From Hello
DR11      -0.96 dB   -13.57 dB      3:13 11-Bounce
DR12      -1.05 dB   -16.25 dB      4:22 12-Open All Night
--------------------------------------------------------------------------------

Number of tracks:  12
Official DR value: DR10

Samplerate:        88200 Hz
Channels:          2
Bits per sample:   24
Bitrate:           2608 kbps
Codec:             FLAC
================================================================================




Create a new paste based on this one


Comments: