[ create a new paste ] login | about

Link: http://codepad.org/kEiiCFI8    [ raw code | fork ]

Plain Text, pasted on Jul 24:
foobar2000 1.5 / Dynamic Range Meter 1.1.1
log date: 2020-07-24 20:09:02

--------------------------------------------------------------------------------
Analyzed: VANILLA FUDGE / Vanilla Fudge
--------------------------------------------------------------------------------

DR         Peak         RMS     Duration Track
--------------------------------------------------------------------------------
DR11      -7.00 dB   -19.45 dB      6:12 01-Ticket To Ride
DR10      -8.19 dB   -22.93 dB      6:29 02-People Get Ready
DR10      -6.76 dB   -19.31 dB      4:55 03-She's Not There
DR11      -6.76 dB   -22.41 dB      6:22 04-Bang Bang
DR14     -13.83 dB   -29.45 dB      0:28 05-Illusions Of My Childhood - Part One
DR10      -7.06 dB   -19.17 dB      6:43 06-You Keep Me Hanging On
DR11     -18.93 dB   -32.37 dB      0:16 07-Illusions Of My Childhood - Part Two
DR10      -6.81 dB   -19.85 dB      3:19 08-Take Me For A Little While
DR10     -13.16 dB   -25.87 dB      0:24 09-Illusions Of My Childhood - Part Three
DR11      -6.04 dB   -22.76 dB      8:25 10-Eleanor Rigby
--------------------------------------------------------------------------------

Number of tracks:  10
Official DR value: DR11

Samplerate:        2822400 Hz / PCM Samplerate: 176400 Hz
Channels:          2
Bits per sample:   1
Bitrate:           5645 kbps
Codec:             DSD64
================================================================================




Create a new paste based on this one


Comments: