[ create a new paste ] login | about

Link: http://codepad.org/kFg3fWJs    [ raw code | fork ]

Plain Text, pasted on Oct 6:
foobar2000 1.6 / Dynamic Range Meter 1.1.1
log date: 2020-10-06 05:26:16

--------------------------------------------------------------------------------
Analyzed: Weather Report / Tale Spinnin'
--------------------------------------------------------------------------------

DR         Peak         RMS     Duration Track
--------------------------------------------------------------------------------
DR12      -0.40 dB   -15.61 dB      6:32 01-Man in the Green Shirt  
DR13      -1.12 dB   -18.30 dB      7:20 02-Lusitanos 
DR14      -0.56 dB   -17.72 dB      9:31 03-Between the Thighs  
DR16      -0.01 dB   -20.92 dB      5:21 04-Badia  
DR12      -0.77 dB   -15.79 dB      7:31 05-Freezing Fire  
DR12      -6.23 dB   -22.13 dB      6:57 06-Five Short Stories  
--------------------------------------------------------------------------------

Number of tracks:  6
Official DR value: DR13

Samplerate:        88200 Hz
Channels:          2
Bits per sample:   24
Bitrate:           2377 kbps
Codec:             FLAC
================================================================================




Create a new paste based on this one


Comments: