[ create a new paste ] login | about

Link: http://codepad.org/kG2pT6zS    [ raw code | fork ]

Plain Text, pasted on Apr 13:
foobar2000 1.3.17 / Dynamic Range Meter 1.1.1
log date: 2018-04-12 21:22:13

--------------------------------------------------------------------------------
Analyzed: Todd Rundgren / Something/Anything?
--------------------------------------------------------------------------------

DR         Peak         RMS     Duration Track
--------------------------------------------------------------------------------
DR12      -5.82 dB   -19.84 dB      3:01 01-I Saw The Light
DR13      -4.68 dB   -22.36 dB      3:51 02-It Wouldn't Have Made Any Difference
DR11      -6.29 dB   -19.61 dB      2:56 03-Wolfman Jack
DR12      -7.21 dB   -21.76 dB      3:35 04-Cold Morning Light
DR11      -8.15 dB   -20.02 dB      2:42 05-It Takes Two To Tango (This Is For The Girls)
DR11      -7.64 dB   -21.83 dB      3:37 06-Sweeter Memories
DR14      -5.82 dB   -24.97 dB      1:12 07-Intro
DR10      -7.66 dB   -19.86 dB      3:16 08-Breathless
DR10      -7.29 dB   -20.67 dB      4:29 09-The Night The Carousel Burnt Down
DR11      -6.71 dB   -20.09 dB      4:12 10-Saving Grace
DR12      -6.28 dB   -21.64 dB      3:55 11-Marlene
DR11      -7.29 dB   -21.09 dB      2:36 12-Song Of The Viking
DR14      -5.63 dB   -23.54 dB      4:07 13-I Went To The Mirror
DR13      -4.16 dB   -21.68 dB      5:21 14-Black Maria
DR11      -6.61 dB   -21.17 dB      3:43 15-One More Day (No Word)
DR11      -7.19 dB   -20.26 dB      3:35 16-Couldn't I Just Tell You
DR10      -8.49 dB   -21.81 dB      2:53 17-Torch Song
DR13      -5.60 dB   -20.59 dB      4:53 18-Little Red Lights
DR12      -7.18 dB   -22.11 dB      2:30 19-Overture - My Roots: Money (That's What I Want) \ Messin' With The Kid
DR11      -7.63 dB   -21.58 dB      3:50 20-Dust In The Wind
DR11      -7.27 dB   -20.72 dB      3:27 21-Piss Aaron
DR12      -6.90 dB   -20.53 dB      4:38 22-Hello, It's Me
DR11      -6.60 dB   -20.58 dB      4:00 23-Some Folks Is Even Whiter Than Me
DR14      -5.40 dB   -23.05 dB      3:14 24-You Left Me Sore
DR11      -6.02 dB   -19.52 dB      4:07 25-Slut
--------------------------------------------------------------------------------

Number of tracks:  25
Official DR value: DR12

Samplerate:        2822400 Hz / PCM Samplerate: 176400 Hz
Channels:          2
Bits per sample:   1
Bitrate:           5645 kbps
Codec:             DSD64
================================================================================




Create a new paste based on this one


Comments: