[ create a new paste ] login | about

Link: http://codepad.org/kN6Ze8kC    [ raw code | fork ]

Plain Text, pasted on Aug 1:
foobar2000 1.3.17 / Dynamic Range Meter 1.1.1
log date: 2018-08-01 10:59:22

--------------------------------------------------------------------------------
Analyzed: Art Pepper / New York Album
--------------------------------------------------------------------------------

DR         Peak         RMS     Duration Track
--------------------------------------------------------------------------------
DR15      -3.04 dB   -21.03 dB      9:39 01-A Night In Tunisia
DR12      -9.43 dB   -23.65 dB      5:46 02-Lover Man (Oh, Where Can You Be)
DR14      -3.52 dB   -19.93 dB      5:57 03-Straight, No Chaser (Alternate Take)
DR14      -6.64 dB   -23.30 dB      7:52 04-Duo Blues
DR15      -2.44 dB   -19.28 dB      9:44 05-My Friend John
--------------------------------------------------------------------------------

Number of tracks:  5
Official DR value: DR14

Samplerate:        2822400 Hz / PCM Samplerate: 176400 Hz
Channels:          2
Bits per sample:   1
Bitrate:           5645 kbps
Codec:             DSD64
================================================================================




Create a new paste based on this one


Comments: