[ create a new paste ] login | about

Link: http://codepad.org/kQI41Wqp    [ raw code | fork ]

Plain Text, pasted on Apr 20:
foobar2000 1.4.1 / Dynamic Range Meter 1.1.1
log date: 2019-04-20 08:08:05

--------------------------------------------------------------------------------
Analyzed: Lou Donaldson / Blues Walk
--------------------------------------------------------------------------------

DR         Peak         RMS     Duration Track
--------------------------------------------------------------------------------
DR13      -8.14 dB   -25.82 dB      6:42 01-Blues Walk
DR13      -7.54 dB   -23.72 dB      5:52 02-Move
DR14      -7.76 dB   -23.20 dB      5:52 03-The Masquerade Is Over
DR14      -6.36 dB   -23.91 dB      5:30 04-Play Ray
DR13      -8.42 dB   -25.34 dB      4:56 05-Autumn Nocturne
DR13      -7.98 dB   -24.32 dB      5:20 06-Callin' All Cats
--------------------------------------------------------------------------------

Number of tracks:  6
Official DR value: DR13

Samplerate:        2822400 Hz / PCM Samplerate: 176400 Hz
Channels:          2
Bits per sample:   1
Bitrate:           5645 kbps
Codec:             DSD64
================================================================================




Create a new paste based on this one


Comments: