[ create a new paste ] login | about

Link: http://codepad.org/kVhNkuyN    [ raw code | fork ]

Plain Text, pasted on Apr 29:
foobar2000 1.3.14 / Dynamic Range Meter 1.1.1
log date: 2017-04-29 10:25:10

--------------------------------------------------------------------------------
Analyzed: Frank Sinatra / No One Cares
--------------------------------------------------------------------------------

DR         Peak         RMS     Duration Track
--------------------------------------------------------------------------------
DR12      -7.75 dB   -24.72 dB      2:44 01-When No One Cares
DR12      -6.66 dB   -25.23 dB      3:19 02-A Cottage For Sale
DR12      -6.20 dB   -23.87 dB      3:23 03-Stormy Weather
DR11      -6.80 dB   -24.11 dB      2:35 04-Where Do You Go?
DR12      -7.30 dB   -23.39 dB      3:19 05-I Don't Stand A Ghost Of A Chance With You
DR12      -7.78 dB   -25.17 dB      3:37 06-Here's That Rainy Day
DR12      -6.41 dB   -23.75 dB      4:03 07-I Can't Get Started
DR12      -7.30 dB   -24.03 dB      3:44 08-Why Try To Change Me Now?
DR12      -6.99 dB   -24.57 dB      3:42 09-Just Friends
DR10      -7.25 dB   -22.67 dB      3:48 10-I'll Never Smile Again
DR11      -6.31 dB   -23.83 dB      3:44 11-None But The Lonely Heart
--------------------------------------------------------------------------------

Number of tracks:  11
Official DR value: DR12

Samplerate:        2822400 Hz / PCM Samplerate: 88200 Hz
Channels:          2
Bits per sample:   1
Bitrate:           5645 kbps
Codec:             DSD64
================================================================================




Create a new paste based on this one


Comments: