[ create a new paste ] login | about

Link: http://codepad.org/kbMwiTT2    [ raw code | fork ]

Plain Text, pasted on Aug 1:
Exact Audio Copy V1.0 beta 3 from 29. August 2011

EAC extraction logfile from 18. October 2013, 22:50

The Beatles / Abbey Road

Used drive  : PLEXTOR DVDR   PX-891SA   Adapter: 1  ID: 0

Read mode               : Secure
Utilize accurate stream : Yes
Defeat audio cache      : Yes
Make use of C2 pointers : No

Read offset correction                      : 6
Overread into Lead-In and Lead-Out          : No
Fill up missing offset samples with silence : Yes
Delete leading and trailing silent blocks   : No
Null samples used in CRC calculations       : Yes
Used interface                              : Native Win32 interface for Win NT & 2000

Used output format              : User Defined Encoder
Selected bitrate                : 1024 kBit/s
Quality                         : High
Add ID3 tag                     : No
Command line compressor         : C:\Program Files\Exact Audio Copy\Flac\flac.exe
Additional command line options : -V -8 -T "Genre=%genre%" -T "Artist=%artist%" -T "Title=%title%" -T "Album=%albumtitle%" -T "Date=%year%" -T "Tracknumber=%tracknr%" -T "Comment=%comment%" %source%


TOC of the extracted CD

     Track |   Start  |  Length  | Start sector | End sector 
    ---------------------------------------------------------
        1  |  0:00.00 |  4:19.71 |         0    |    19495   
        2  |  4:19.71 |  3:02.22 |     19496    |    33167   
        3  |  7:22.18 |  3:27.69 |     33168    |    48761   
        4  | 10:50.12 |  3:27.18 |     48762    |    64304   
        5  | 14:17.30 |  2:50.54 |     64305    |    77108   
        6  | 17:08.09 |  7:47.24 |     77109    |   112157   
        7  | 24:55.33 |  3:05.55 |    112158    |   126087   
        8  | 28:01.13 |  2:45.50 |    126088    |   138512   
        9  | 30:46.63 |  4:02.73 |    138513    |   156735   
       10  | 34:49.61 |  2:26.20 |    156736    |   167705   
       11  | 37:16.06 |  1:06.40 |    167706    |   172695   
       12  | 38:22.46 |  1:12.48 |    172696    |   178143   
       13  | 39:35.19 |  1:58.47 |    178144    |   187040   
       14  | 41:33.66 |  1:31.57 |    187041    |   193922   
       15  | 43:05.48 |  1:36.35 |    193923    |   201157   
       16  | 44:42.08 |  2:21.46 |    201158    |   211778   
       17  | 47:03.54 |  0:25.74 |    211779    |   213727   
       18  | 50:01.53 | 24:41.58 |    225128    |   336260   


Range status and errors

Selected range

     Filename I:\dafnaplus\09.09.09\12 Abbey Road\The Beatles - Abbey Road.wav

     Peak level 97.2 %
     Extraction speed 3.2 X
     Range quality 100.0 %
     Test CRC 56DDC440
     Copy CRC 56DDC440
     Copy OK

No errors occurred

 
AccurateRip summary
 
Track  1  accurately ripped (confidence 200)  [39D05B38]  (AR v2)
Track  2  accurately ripped (confidence 200)  [DA54C7FF]  (AR v2)
Track  3  accurately ripped (confidence 200)  [73F3C959]  (AR v2)
Track  4  accurately ripped (confidence 200)  [49AAB9A9]  (AR v2)
Track  5  accurately ripped (confidence 200)  [7E405CAF]  (AR v2)
Track  6  accurately ripped (confidence 200)  [F8CFAA5D]  (AR v2)
Track  7  accurately ripped (confidence 200)  [981BDEB5]  (AR v2)
Track  8  accurately ripped (confidence 200)  [BC2AC0B7]  (AR v2)
Track  9  accurately ripped (confidence 200)  [D8638253]  (AR v2)
Track 10  accurately ripped (confidence 200)  [48B0919E]  (AR v2)
Track 11  accurately ripped (confidence 200)  [292D6375]  (AR v2)
Track 12  accurately ripped (confidence 200)  [071BAB3D]  (AR v2)
Track 13  accurately ripped (confidence 200)  [78C4C2F1]  (AR v2)
Track 14  accurately ripped (confidence 200)  [B1DDC03A]  (AR v2)
Track 15  accurately ripped (confidence 200)  [F1575244]  (AR v2)
Track 16  accurately ripped (confidence 200)  [6CBB254E]  (AR v2)
Track 17  accurately ripped (confidence 200)  [FF0914C8]  (AR v2)
 
All tracks accurately ripped

End of status report

==== Log checksum C9054A9FADEB977903AF1F71961A5D4D738141AEC1594F83ECE354D411B8C59E ====



Create a new paste based on this one


Comments: