[ create a new paste ] login | about

Link: http://codepad.org/kbtw9Qyr    [ raw code | fork ]

Plain Text, pasted on Aug 30:
Exact Audio Copy V1.3 from 2. September 2016

EAC extraction logfile from 15. August 2019, 16:47

Climax Blues Band / Tightly Knit

Used drive  : PLEXTOR BD-R  PX-B950SA   Adapter: 1  ID: 1

Read mode               : Secure
Utilize accurate stream : Yes
Defeat audio cache      : Yes
Make use of C2 pointers : No

Read offset correction                      : 6
Overread into Lead-In and Lead-Out          : No
Fill up missing offset samples with silence : Yes
Delete leading and trailing silent blocks   : No
Null samples used in CRC calculations       : Yes
Used interface                              : Native Win32 interface for Win NT & 2000

Used output format : Internal WAV Routines
Sample format      : 44.100 Hz; 16 Bit; Stereo


TOC of the extracted CD

     Track |   Start  |  Length  | Start sector | End sector 
    ---------------------------------------------------------
        1  |  0:00.00 |  3:33.71 |         0    |    16045   
        2  |  3:33.71 |  3:33.73 |     16046    |    32093   
        3  |  7:07.69 |  3:20.39 |     32094    |    47132   
        4  | 10:28.33 |  6:34.51 |     47133    |    76733   
        5  | 17:03.09 |  4:59.03 |     76734    |    99161   
        6  | 22:02.12 |  1:37.50 |     99162    |   106486   
        7  | 23:39.62 |  9:55.15 |    106487    |   151126   
        8  | 33:35.02 |  3:20.19 |    151127    |   166145   
        9  | 36:55.21 |  2:14.15 |    166146    |   176210   
       10  | 39:09.36 |  3:37.61 |    176211    |   192546   
       11  | 42:47.22 |  4:47.06 |    192547    |   214077   
       12  | 47:34.28 |  6:22.61 |    214078    |   242788   


Range status and errors

Selected range

     Filename C:\Climax Blues Band\2019 The Albums 1969-1972 (5CD Box Set Esoteric Records)\1971 Tightly Knit\Climax Blues Band - Tightly Knit.wav

     Peak level 99.4 %
     Extraction speed 7.2 X
     Range quality 100.0 %
     Test CRC AB7FA92A
     Copy CRC AB7FA92A
     Copy OK

No errors occurred

 
AccurateRip summary
 
Track  1  not present in database
Track  2  not present in database
Track  3  not present in database
Track  4  not present in database
Track  5  not present in database
Track  6  not present in database
Track  7  not present in database
Track  8  not present in database
Track  9  not present in database
Track 10  not present in database
Track 11  not present in database
Track 12  not present in database
 
None of the tracks are present in the AccurateRip database

End of status report

---- CUETools DB Plugin V2.1.6

[CTDB TOCID: JibDof46xvbYGgcKIY7uP7IsH5E-] found
Submit result: JibDof46xvbYGgcKIY7uP7IsH5E- has been confirmed
Track | CTDB Status
  1   | (3/3) Accurately ripped
  2   | (3/3) Accurately ripped
  3   | (3/3) Accurately ripped
  4   | (3/3) Accurately ripped
  5   | (3/3) Accurately ripped
  6   | (3/3) Accurately ripped
  7   | (3/3) Accurately ripped
  8   | (3/3) Accurately ripped
  9   | (3/3) Accurately ripped
 10   | (3/3) Accurately ripped
 11   | (3/3) Accurately ripped
 12   | (3/3) Accurately ripped


==== Log checksum ABFE68A0DA494BDBF14C029543823154F4E2446C294DBA403C341BD93B612322 ====



Create a new paste based on this one


Comments: