[ create a new paste ] login | about

Link: http://codepad.org/kcDyWej8    [ raw code | fork ]

Plain Text, pasted on Dec 7:
[CUETools log; Date: 12/7/2017 12:16:35 PM; Version: 2.1.5]
[CTDB TOCID: xo6ZAxs8dVsgzFmkmQ3Osd661M4-] found.
Track | CTDB Status
  1   | (34/34) Accurately ripped
  2   | (33/34) Accurately ripped
  3   | (34/34) Accurately ripped
  4   | (34/34) Accurately ripped
  5   | (34/34) Accurately ripped
  6   | (34/34) Accurately ripped
  7   | (34/34) Accurately ripped
  8   | (34/34) Accurately ripped
  9   | (34/34) Accurately ripped
 10   | (34/34) Accurately ripped
 11   | (34/34) Accurately ripped
 12   | (34/34) Accurately ripped
[AccurateRip ID: 001c6b24-010f127c-a70f350c] found.
Track   [  CRC   |   V2   ] Status
 01     [0689c93b|fcff7b50] (35+33/74) Accurately ripped
 02     [dbb34bf3|8e2ef074] (35+33/74) Accurately ripped
 03     [4e8499bd|f46a5e76] (35+33/74) Accurately ripped
 04     [c6934224|0ee7648a] (36+33/75) Accurately ripped
 05     [e6e21bd3|a6801a1c] (36+33/75) Accurately ripped
 06     [11d56398|f63ae0a4] (35+33/74) Accurately ripped
 07     [6dfeebbe|82a81343] (35+34/75) Accurately ripped
 08     [cc9e518e|ab2cdd34] (36+34/76) Accurately ripped
 09     [13d7980a|b8088605] (36+34/76) Accurately ripped
 10     [c7df4174|45570090] (35+34/75) Accurately ripped
 11     [c995ade2|551f3078] (33+34/73) Accurately ripped
 12     [8af3d977|3371db5d] (34+33/72) Accurately ripped
Offsetted by -18:
 01     [06ccd163] (03/74) Accurately ripped
 02     [b9d081c9] (03/74) Accurately ripped
 03     [5ea5fb65] (03/74) Accurately ripped
 04     [40d6257f] (03/75) Accurately ripped
 05     [edd3f396] (03/75) Accurately ripped
 06     [b07b8ac1] (03/74) Accurately ripped
 07     [564eff92] (03/75) Accurately ripped
 08     [5c4e45d7] (03/76) Accurately ripped
 09     [54d41d13] (03/76) Accurately ripped
 10     [81d7e14d] (03/75) Accurately ripped
 11     [5fc43598] (03/73) Accurately ripped
 12     [5a625a6d] (03/72) Accurately ripped

Track Peak [ CRC32  ] [W/O NULL] [  LOG   ]
 --   98.8 [A50FFCBD] [3BFE160B]           
 01   98.8 [FA3D1903] [4511CCD4]   CRC32   
 02   98.8 [F99AFE11] [EB489EAA]   CRC32   
 03   98.8 [82F9BD09] [D954E37D]   CRC32   
 04   98.8 [027AB0A7] [C03D4DFC]   CRC32   
 05   98.8 [7E6E5B06] [B8BFA4E6]   CRC32   
 06   98.8 [C6416AE7] [B6CFA1C5]   CRC32   
 07   98.8 [C9203622] [909AAA1B]   CRC32   
 08   98.8 [9FB7B0A5] [5D8D7166]   CRC32   
 09   98.8 [573615F3] [AE17C769]   CRC32   
 10   98.8 [2994343E] [2A0218D0]   CRC32   
 11   98.8 [86B47973] [E6F12D8C]   CRC32   
 12   98.8 [D5933DB4] [97720D3C]   CRC32   



Create a new paste based on this one


Comments: