[ create a new paste ] login | about

Link: http://codepad.org/kdfmB7Xq    [ raw code | fork ]

Plain Text, pasted on Aug 6:
foobar2000 1.3.17 / Dynamic Range Meter 1.1.1
log date: 2018-08-06 09:25:44

--------------------------------------------------------------------------------
Analyzed: Dave Wilczewski / Room in the Clouds
--------------------------------------------------------------------------------

DR         Peak         RMS     Duration Track
--------------------------------------------------------------------------------
DR21      -0.01 dB   -29.39 dB      5:53 01-Mio
DR12      -5.73 dB   -28.80 dB      7:26 02-Waynes World
DR12      -6.31 dB   -27.07 dB      5:37 03-April Fools
DR10      -7.45 dB   -28.28 dB      6:16 04-Munen-Musou
DR12      -6.42 dB   -27.15 dB      6:15 05-Elvin Jones
DR11      -4.37 dB   -26.67 dB      5:58 06-Fun for Kofi
DR10      -5.42 dB   -26.90 dB      6:23 07-Lament for B.G.
DR11      -5.39 dB   -26.88 dB      6:35 08-Gofry in Gdansk
DR12      -5.82 dB   -28.07 dB      4:09 09-Blues for Shep
DR10      -6.22 dB   -26.74 dB      8:22 10-Way Back When
DR11      -5.63 dB   -28.29 dB      8:18 11-Speedy
DR9       -6.48 dB   -25.62 dB      1:57 12-For a Smile
--------------------------------------------------------------------------------

Number of tracks:  12
Official DR value: DR12

Samplerate:        88200 Hz
Channels:          6
Bits per sample:   24
Bitrate:           5025 kbps
Codec:             FLAC
================================================================================




Create a new paste based on this one


Comments: