[ create a new paste ] login | about

Link: http://codepad.org/kfrmieiA    [ raw code | fork ]

Plain Text, pasted on Apr 27:
foobar2000 1.3 / Dynamic Range Meter 1.1.1
log date: 2015-02-16 12:11:35

--------------------------------------------------------------------------------
Analyzed: Love / Forever Changes (2014 MFSL Hybrid SACD)
--------------------------------------------------------------------------------

DR         Peak         RMS     Duration Track
--------------------------------------------------------------------------------
DR12      -0.34 dB   -17.99 dB      3:18 01-Alone Again Or
DR9       -3.25 dB   -16.55 dB      3:32 02-A House Is Not A Motel
DR13      -1.84 dB   -18.08 dB      3:21 03-Andmoreagain
DR13      -1.78 dB   -17.42 dB      3:31 04-The Daily Planet
DR10      -4.24 dB   -19.24 dB      3:03 05-Old Man
DR11      -5.35 dB   -19.34 dB      4:50 06-The Red Telephone
DR12      -1.39 dB   -14.72 dB      3:35 07-Maybe The People Would Be The Times Or Between Clark And Hilldale
DR10      -3.69 dB   -17.75 dB      5:27 08-Live And Let Live
DR13      -3.76 dB   -21.33 dB      3:08 09-The Good Humor Man He Sees Everything Like This
DR12      -2.48 dB   -17.10 dB      2:24 10-Bummer In The Summer
DR12      -1.87 dB   -17.60 dB      6:53 11-You Set The Scene
--------------------------------------------------------------------------------

Number of tracks:  11
Official DR value: DR12

Samplerate:        88200 Hz
Channels:          2
Bits per sample:   24
Bitrate:           2647 kbps
Codec:             FLAC
================================================================================




Create a new paste based on this one


Comments: