[ create a new paste ] login | about

Link: http://codepad.org/kfxOdMhW    [ raw code | fork ]

Plain Text, pasted on May 28:
Exact Audio Copy V1.3 from 2. September 2016

EAC extraction logfile from 4. December 2017, 10:30

The Rolling Stones / The Rolling Stones On Air Deluxe [CD1]

Used drive  : ASUS    SDRW-08D2S-U   Adapter: 1  ID: 0

Read mode               : Secure
Utilize accurate stream : Yes
Defeat audio cache      : Yes
Make use of C2 pointers : No

Read offset correction                      : 6
Overread into Lead-In and Lead-Out          : No
Fill up missing offset samples with silence : Yes
Delete leading and trailing silent blocks   : No
Null samples used in CRC calculations       : Yes
Used interface                              : Native Win32 interface for Win NT & 2000

Used output format              : User Defined Encoder
Selected bitrate                : 768 kBit/s
Quality                         : High
Add ID3 tag                     : No
Command line compressor         : C:\Program Files (x86)\Exact Audio Copy\FLAC\FLAC.EXE
Additional command line options : -V -8 -T "Date=%year%" -T "Genre=%genre%" %source%


TOC of the extracted CD

     Track |   Start  |  Length  | Start sector | End sector 
    ---------------------------------------------------------
        1  |  0:00.00 |  2:02.74 |         0    |     9223   
        2  |  2:02.74 |  3:46.66 |      9224    |    26239   
        3  |  5:49.65 |  2:19.32 |     26240    |    36696   
        4  |  8:09.22 |  3:14.12 |     36697    |    51258   
        5  | 11:23.34 |  3:44.65 |     51259    |    68123   
        6  | 15:08.24 |  3:18.59 |     68124    |    83032   
        7  | 18:27.08 |  2:32.35 |     83033    |    94467   
        8  | 20:59.43 |  2:22.07 |     94468    |   105124   
        9  | 23:21.50 |  2:01.59 |    105125    |   114258   
       10  | 25:23.34 |  3:10.43 |    114259    |   128551   
       11  | 28:34.02 |  3:07.15 |    128552    |   142591   
       12  | 31:41.17 |  2:54.49 |    142592    |   155690   
       13  | 34:35.66 |  1:49.21 |    155691    |   163886   
       14  | 36:25.12 |  2:45.47 |    163887    |   176308   
       15  | 39:10.59 |  1:56.42 |    176309    |   185050   
       16  | 41:07.26 |  2:11.62 |    185051    |   194937   
       17  | 43:19.13 |  2:46.36 |    194938    |   207423   
       18  | 46:05.49 |  2:58.31 |    207424    |   220804   


Range status and errors

Selected range

     Filename D:\222\2017 - The Rolling Stones - On Air Deluxe\CD1\The Rolling Stones - The Rolling Stones On Air Deluxe [CD1].wav

     Peak level 99.9 %
     Extraction speed 4.3 X
     Range quality 100.0 %
     Test CRC 6D618D8D
     Copy CRC 6D618D8D
     Copy OK

No errors occurred

 
AccurateRip summary
 
Track  1  not present in database
Track  2  not present in database
Track  3  not present in database
Track  4  not present in database
Track  5  not present in database
Track  6  not present in database
Track  7  not present in database
Track  8  not present in database
Track  9  not present in database
Track 10  not present in database
Track 11  not present in database
Track 12  not present in database
Track 13  not present in database
Track 14  not present in database
Track 15  not present in database
Track 16  not present in database
Track 17  not present in database
Track 18  not present in database
 
None of the tracks are present in the AccurateRip database

End of status report

---- CUETools DB Plugin V2.1.6

[CTDB TOCID: _resiGmCUROc4CSumhELsQoLenY-] found
Submit result: _resiGmCUROc4CSumhELsQoLenY- has been confirmed
Track | CTDB Status
  1   | (36/36) Accurately ripped
  2   | (36/36) Accurately ripped
  3   | (36/36) Accurately ripped
  4   | (36/36) Accurately ripped
  5   | (36/36) Accurately ripped
  6   | (36/36) Accurately ripped
  7   | (36/36) Accurately ripped
  8   | (36/36) Accurately ripped
  9   | (36/36) Accurately ripped
 10   | (36/36) Accurately ripped
 11   | (36/36) Accurately ripped
 12   | (36/36) Accurately ripped
 13   | (36/36) Accurately ripped
 14   | (36/36) Accurately ripped
 15   | (36/36) Accurately ripped
 16   | (36/36) Accurately ripped
 17   | (36/36) Accurately ripped
 18   | (36/36) Accurately ripped


==== Log checksum 31305247D8888B4C37B0F18088452818388002BDA6D8B1734C4B4986C6B5DC8D ====



Create a new paste based on this one


Comments: