[ create a new paste ] login | about

Link: http://codepad.org/kjkdzi76    [ raw code | fork ]

Plain Text, pasted on Jan 24:
foobar2000 1.5 / Dynamic Range Meter 1.1.1
log date: 2020-01-24 23:32:30

--------------------------------------------------------------------------------
Analyzed: Jefferson Airplane / Crown Of Creation
--------------------------------------------------------------------------------

DR         Peak         RMS     Duration Track
--------------------------------------------------------------------------------
DR12      -0.06 dB   -16.92 dB      2:56 01-Lather
DR12      -0.05 dB   -16.31 dB      4:13 02-In Time
DR14      -3.01 dB   -20.66 dB      4:55 03-Triad
DR12      -1.85 dB   -14.82 dB      3:09 04-Star Track
DR12      -1.76 dB   -17.80 dB      3:07 05-Share A Little Joke
DR15      -4.83 dB   -23.81 dB      1:18 06-Chushingura
DR13      -0.07 dB   -16.10 dB      3:20 07-If You Feel
DR13      -0.41 dB   -15.62 dB      2:54 08-Crown Of Creation
DR13      -2.34 dB   -16.79 dB      3:00 09-Ice Cream Phoenix
DR12      -0.50 dB   -15.82 dB      3:25 10-Greasy Heart
DR12      -0.09 dB   -14.22 dB      5:50 11-The House At Pooneil Corners
--------------------------------------------------------------------------------

Number of tracks:  11
Official DR value: DR13

Samplerate:        96000 Hz
Channels:          2
Bits per sample:   24
Bitrate:           2976 kbps
Codec:             FLAC
================================================================================




Create a new paste based on this one


Comments: