[ create a new paste ] login | about

Link: http://codepad.org/kpFXSd8C    [ raw code | fork ]

Plain Text, pasted on May 8:
foobar2000 1.4.1 / Dynamic Range Meter 1.1.1
log date: 2019-05-07 23:09:25

--------------------------------------------------------------------------------
Analyzed: Miles Davis Quintet / Relaxin' With Miles
--------------------------------------------------------------------------------

DR         Peak         RMS     Duration Track
--------------------------------------------------------------------------------
DR13      -0.74 dB   -17.70 dB      8:22 01-If I Were A Bell
DR14      -2.12 dB   -20.70 dB      5:22 02-You're My Everything
DR13      -0.01 dB   -15.63 dB      5:13 03-I Could Write A Book
DR12      -1.31 dB   -16.96 dB      6:29 04-Oleo
DR13      -1.13 dB   -18.76 dB      6:41 05-It Could Happen To You
DR12      -1.72 dB   -16.70 dB      5:02 06-Woody'n You
--------------------------------------------------------------------------------

Number of tracks:  6
Official DR value: DR13

Samplerate:        88200 Hz
Channels:          2
Bits per sample:   24
Bitrate:           2768 kbps
Codec:             FLAC
================================================================================




Create a new paste based on this one


Comments: