[ create a new paste ] login | about

Link: http://codepad.org/kryFmRE8    [ raw code | fork ]

Plain Text, pasted on May 11:
foobar2000 1.3.14 / Dynamic Range Meter 1.1.1
log date: 2017-05-10 14:27:00

--------------------------------------------------------------------------------
Analyzed: Foreigner / Foreigner
--------------------------------------------------------------------------------

DR         Peak         RMS     Duration Track
--------------------------------------------------------------------------------
DR11      -6.17 dB   -19.53 dB      3:52 01-Feels Like The First Time
DR9       -7.21 dB   -20.33 dB      3:24 02-Cold As Ice
DR12      -6.26 dB   -23.21 dB      4:03 03-Starrider
DR10      -7.06 dB   -19.92 dB      3:05 04-Headknocker
DR9       -6.98 dB   -20.37 dB      4:21 05-The Damage Is Done
DR11      -7.26 dB   -20.10 dB      2:57 06-Long, Long Way From Home
DR12      -7.53 dB   -21.67 dB      3:53 07-Woman Oh Woman 
DR10      -7.02 dB   -20.01 dB      4:26 08-At War With The World
DR11      -6.22 dB   -20.94 dB      4:17 09-Fool For You Anyway
DR10      -7.34 dB   -20.01 dB      5:14 10-I Need You
--------------------------------------------------------------------------------

Number of tracks:  10
Official DR value: DR11

Samplerate:        2822400 Hz / PCM Samplerate: 88200 Hz
Channels:          2
Bits per sample:   1
Bitrate:           5645 kbps
Codec:             DSD64
================================================================================




Create a new paste based on this one


Comments: