[ create a new paste ] login | about

Link: http://codepad.org/l1WHRnwM    [ raw code | fork ]

Plain Text, pasted on Aug 27:
[CUETools log; Date: 8/27/2020 5:30:29 AM; Version: 2.1.7]
[CTDB TOCID: HcT73infeNdp99j7mTZ5CTEPjec-] found.
Track | CTDB Status
  1   | (68/68) Accurately ripped
  2   | (68/68) Accurately ripped
  3   | (68/68) Accurately ripped
  4   | (67/68) Accurately ripped
  5   | (67/68) Accurately ripped
  6   | (67/68) Accurately ripped
  7   | (68/68) Accurately ripped
  8   | (68/68) Accurately ripped
  9   | (68/68) Accurately ripped
 10   | (68/68) Accurately ripped
 11   | (68/68) Accurately ripped
 12   | (67/68) Accurately ripped
 13   | (67/68) Accurately ripped
 14   | (68/68) Accurately ripped
 15   | (68/68) Accurately ripped
 16   | (68/68) Accurately ripped
 17   | (68/68) Accurately ripped
 18   | (68/68) Accurately ripped
 19   | (68/68) Accurately ripped
 20   | (68/68) Accurately ripped
 21   | (68/68) Accurately ripped
 22   | (68/68) Accurately ripped
[AccurateRip ID: 0024ec7b-023fed66-240a1916] found.
Track   [  CRC   |   V2   ] Status
 01     [df04c210|8cc5fe3a] (11+21/35) Accurately ripped
 02     [2bb1c8fd|d6f3db83] (12+21/36) Accurately ripped
 03     [2fe42f74|1cb931f0] (12+21/36) Accurately ripped
 04     [f923d495|71edc92c] (12+21/36) Accurately ripped
 05     [d6e9aa11|c57d69b7] (12+21/36) Accurately ripped
 06     [d9f4cdd8|6872ccb8] (12+21/36) Accurately ripped
 07     [145e7976|396edcc8] (12+21/36) Accurately ripped
 08     [c4d89537|72fc5861] (12+21/36) Accurately ripped
 09     [a17b3976|e1c39372] (12+21/36) Accurately ripped
 10     [047c1025|c0607eeb] (12+21/36) Accurately ripped
 11     [011941d8|ec7358e1] (12+21/36) Accurately ripped
 12     [b4fd20cd|83fa306f] (11+21/35) Accurately ripped
 13     [24b4921f|af9069b0] (12+21/36) Accurately ripped
 14     [65ca2871|3048f4db] (12+21/36) Accurately ripped
 15     [22171c96|79f3d1f4] (12+21/36) Accurately ripped
 16     [52db9b74|344ef2e2] (12+21/36) Accurately ripped
 17     [acd081c9|9c515f0c] (12+21/36) Accurately ripped
 18     [825158c4|c302d41f] (12+21/36) Accurately ripped
 19     [77e8be87|2b67bb6b] (12+20/35) Accurately ripped
 20     [817039e9|07ddf3a9] (12+20/35) Accurately ripped
 21     [f4923ab2|ad0ece2c] (12+20/35) Accurately ripped
 22     [a3a108e3|a4fa0fbc] (11+20/34) Accurately ripped
Offsetted by 6:
 01     [78473f67] (00/35) No match (V2 was not tested)
 02     [b42c7746] (00/36) No match (V2 was not tested)
 03     [45c15c45] (00/36) No match (V2 was not tested)
 04     [0c4617e0] (00/36) No match (V2 was not tested)
 05     [280658fb] (00/36) No match (V2 was not tested)
 06     [b24ba5b0] (00/36) No match (V2 was not tested)
 07     [c2414dda] (00/36) No match (V2 was not tested)
 08     [60500c81] (00/36) No match (V2 was not tested)
 09     [bb94bcea] (00/36) No match (V2 was not tested)
 10     [6ab53677] (00/36) No match (V2 was not tested)
 11     [88183f8c] (00/36) No match (V2 was not tested)
 12     [baff5cb7] (00/35) No match (V2 was not tested)
 13     [4cfaed49] (00/36) No match (V2 was not tested)
 14     [9205042b] (00/36) No match (V2 was not tested)
 15     [b94f0d46] (00/36) No match (V2 was not tested)
 16     [17f6f9b6] (00/36) No match (V2 was not tested)
 17     [001019fb] (00/36) No match (V2 was not tested)
 18     [6d4fedc6] (00/36) No match (V2 was not tested)
 19     [b1116497] (00/35) No match (V2 was not tested)
 20     [9c017185] (00/35) No match (V2 was not tested)
 21     [88a04868] (00/35) No match (V2 was not tested)
 22     [6ce8747d] (00/34) No match (V2 was not tested)

Track Peak [ CRC32  ] [W/O NULL] [  LOG   ]
 --   97.2 [217DBB5B] [EAD92610]           
 01   97.2 [F4614F6A] [F92BF821]   CRC32   
 02   80.3 [35B9E34F] [55FF61D5]   CRC32   
 03   91.3 [800F94C6] [9798F4AF]   CRC32   
 04   75.0 [9731489B] [53BCECD4]   CRC32   
 05   97.2 [99C03AA1] [CEBE4D27]   CRC32   
 06   96.9 [7F3862C4] [8CBF4432]   CRC32   
 07   93.6 [8C7AA9F6] [1AA029DB]   CRC32   
 08   62.6 [EAE27F63] [06909B75]   CRC32   
 09   97.2 [951F7FE0] [3CF8B17B]   CRC32   
 10   70.4 [A57227A0] [95B4D600]   CRC32   
 11   73.6 [8C786894] [465097A2]   CRC32   
 12   39.7 [75AEEC9D] [8244D9CA]   CRC32   
 13   85.8 [FA836A43] [E63B96D4]   CRC32   
 14   96.9 [9C1E583F] [580FA1A6]   CRC32   
 15   96.5 [1D22AD43] [F06919CE]   CRC32   
 16   53.5 [2C2935C4] [8CE80885]   CRC32   
 17   97.2 [F9857062] [B73A032E]   CRC32   
 18   40.0 [AC37516C] [FE0DBC79]   CRC32   
 19   76.2 [650A4771] [12E8021A]   CRC32   
 20   43.2 [668F1BF4] [6F3D4D8A]   CRC32   
 21   97.2 [3781439B] [777BE382]   CRC32   
 22   97.2 [AE014B5E] [5AEA494A]   CRC32   



Create a new paste based on this one


Comments: