[ create a new paste ] login | about

Link: http://codepad.org/l4WgjDiI    [ raw code | fork ]

Plain Text, pasted on Dec 2:
foobar2000 1.3.16 / Dynamic Range Meter 1.1.1
log date: 2017-12-02 07:01:04

--------------------------------------------------------------------------------
Analyzed: Nirvana (MQS) / (1989) Bleach (2013 Deluxe Edition)
--------------------------------------------------------------------------------

DR         Peak         RMS     Duration Track
--------------------------------------------------------------------------------
DR6       -0.70 dB    -8.75 dB      2:54 01-Blew (Remastered)
DR8       -0.70 dB    -9.74 dB      2:18 02-Floyd The Barber (Remastered)
DR8       -0.70 dB    -9.28 dB      2:48 03-About A Girl (Remastered)
DR8       -0.70 dB    -9.89 dB      2:42 04-School (Remastered)
DR7       -0.70 dB    -9.08 dB      3:35 05-Love Buzz (Remastered)
DR8       -0.70 dB   -10.43 dB      4:06 06-Paper Cuts (Remastered)
DR7       -0.70 dB    -8.84 dB      2:56 07-Negative Creep (Remastered)
DR7       -0.70 dB    -8.67 dB      4:10 08-Scoff (Remastered)
DR7       -0.70 dB    -9.01 dB      3:03 09-Swap Meet (Remastered)
DR7       -0.70 dB    -8.14 dB      3:24 10-Mr. Moustache (Remastered)
DR8       -0.70 dB   -10.24 dB      5:23 11-Sifting (Remastered)
DR7       -0.70 dB    -9.39 dB      3:42 12-Big Cheese (Remastered)
DR7       -0.70 dB    -8.53 dB      1:44 13-Downer (Remastered)
DR7       -0.70 dB    -9.68 dB      0:53 14-Intro (Live at Pine Street Theatre)
DR7       -0.70 dB    -9.11 dB      2:36 15-School (Live at Pine Street Theatre)
DR7       -0.70 dB    -9.30 dB      2:17 16-Floyd The Barber (Live at Pine Street Theatre)
DR7       -0.70 dB    -9.09 dB      3:42 17-Dive (Live at Pine Street Theatre)
DR9       -0.70 dB   -10.52 dB      2:58 18-Love Buzz (Live at Pine Street Theatre)
DR8       -0.70 dB    -9.78 dB      2:59 19-Spank Thru (Live at Pine Street Theatre)
DR8       -0.70 dB    -9.70 dB      2:16 20-Molly's Lips (Live at Pine Street Theatre)
DR8       -0.70 dB    -9.71 dB      3:19 21-Sappy (Live at Pine Street Theatre)
DR8       -0.70 dB    -9.11 dB      3:53 22-Scoff (Live at Pine Street Theatre)
DR8       -0.70 dB    -9.38 dB      2:28 23-About A Girl (Live at Pine Street Theatre)
DR8       -0.70 dB    -9.19 dB      2:01 24-Been A Son (Live at Pine Street Theatre)
DR8       -0.70 dB   -10.89 dB      4:30 25-Blew (Live at Pine Street Theatre)
--------------------------------------------------------------------------------

Number of tracks:  25
Official DR value: DR7

Samplerate:        96000 Hz
Channels:          2
Bits per sample:   24
Bitrate:           2940 kbps
Codec:             FLAC
================================================================================




Create a new paste based on this one


Comments: