[ create a new paste ] login | about

Link: http://codepad.org/l7d7Qls8    [ raw code | fork ]

Plain Text, pasted on Jan 7:
foobar2000 1.5 / Dynamic Range Meter 1.1.1
log date: 2020-01-07 21:52:08

--------------------------------------------------------------------------------
Analyzed: Yes / Fragile [2019 MoFi UltraDisc One-Step 45rpm Vinyl]
--------------------------------------------------------------------------------

DR         Peak         RMS     Duration Track
--------------------------------------------------------------------------------
DR10      -0.41 dB   -13.78 dB      8:38 01-Roundabout
DR11      -2.92 dB   -16.70 dB      1:41 02-Cans And Brahms
DR9       -2.68 dB   -13.91 dB      1:40 03-We Have Heaven
DR10      -0.39 dB   -14.63 dB      8:00 04-South Side Of The Sky
DR11      -1.39 dB   -14.26 dB      0:38 05-Five Per Cent For Nothing
DR10      -1.84 dB   -14.78 dB      3:31 06-Long Distance Runaround
DR11      -1.81 dB   -14.44 dB      2:43 07-The Fish (Schindleria Praematurus)
DR12      -4.44 dB   -19.09 dB      3:01 08-Mood For A Day
DR11      -0.46 dB   -14.49 dB     11:30 09-Heart Of The Sunrise
--------------------------------------------------------------------------------

Number of tracks:  9
Official DR value: DR11

Samplerate:        44100 Hz
Channels:          2
Bits per sample:   16
Bitrate:           841 kbps
Codec:             FLAC
================================================================================




Create a new paste based on this one


Comments: