[ create a new paste ] login | about

Link: http://codepad.org/lIYVL7wi    [ raw code | fork ]

Plain Text, pasted on Dec 7:
foobar2000 1.3.16 / Dynamic Range Meter 1.1.1
log date: 2017-12-07 12:18:24

--------------------------------------------------------------------------------
Analyzed: Emerson Lake & Palmer / Brain Salad Surgery (Bonus Disc)
--------------------------------------------------------------------------------

DR         Peak         RMS     Duration Track
--------------------------------------------------------------------------------
DR11      -0.10 dB   -13.79 dB      3:59 01-When The Apple Blossoms Bloom In The Windmills Of Your Mind I'll Be Your Valentine Time
DR11      -0.10 dB   -14.08 dB      3:08 02-Brain Salad Surgery
DR11      -0.10 dB   -13.84 dB      9:10 03-Karn Evil 9: 3rd Impression (Original Backing Track)
DR8       -0.10 dB   -11.05 dB      2:46 04-Jerusalem
DR12      -0.10 dB   -15.44 dB      2:53 05-Still ... You Turn Me On
DR11      -0.10 dB   -15.39 dB      7:23 06-Toccatta (First Mix)
DR11      -0.10 dB   -13.80 dB      8:35 07-Karn Evil 9 1st Impression #1 (35th Anniversary Version)
DR10      -0.10 dB   -13.02 dB      4:48 08-Karn Evil 9 1st Impression #2 (35th Anniversary Version)
DR14      -0.10 dB   -17.94 dB      7:07 09-Karn Evil 9 2nd Impression (35th Anniversary Version)
DR11      -0.10 dB   -14.35 dB      9:05 10-Karn Evil 9 3rd Impression (35th Anniversary Version)
DR12      -0.10 dB   -14.86 dB      3:07 11-Excerpts From Brain Salad Surgery (NME Flexidisc)
DR12      -0.10 dB   -15.87 dB      2:52 12-Hidden Track
--------------------------------------------------------------------------------

Number of tracks:  12
Official DR value: DR11

Samplerate:        44100 Hz
Channels:          2
Bits per sample:   16
Bitrate:           787 kbps
Codec:             FLAC
================================================================================




Create a new paste based on this one


Comments: