[ create a new paste ] login | about

Link: http://codepad.org/lJdZEz3Q    [ raw code | fork ]

Plain Text, pasted on Nov 6:
foobar2000 1.4.6 / Dynamic Range Meter 1.1.1
log date: 2019-11-06 10:49:39

--------------------------------------------------------------------------------
Analyzed: Bob Dylan / Travelin' Thru, 1967 - 1969: The Bootleg Series, Vol. 15
--------------------------------------------------------------------------------

DR         Peak         RMS     Duration Track
--------------------------------------------------------------------------------
DR12      -1.32 dB   -14.45 dB      2:33 01-Drifter's Escape (Take 1)
DR12      -1.26 dB   -15.47 dB      3:50 02-I Dreamed I Saw St. Augustine (Take 2)
DR12      -2.48 dB   -15.77 dB      2:31 03-All Along the Watchtower (Take 3)
DR13      -0.57 dB   -15.66 dB      2:47 04-John Wesley Harding (Take 1)
DR12      -1.21 dB   -16.01 dB      4:23 05-As I Went Out One Morning (Take 1)
DR12      -0.90 dB   -15.56 dB      2:33 06-I Pity the Poor Immigrant (Take 4)
DR13      -1.58 dB   -16.05 dB      2:56 07-I Am a Lonesome Hobo (Take 4)
DR13      -0.33 dB   -17.13 dB      2:24 08-I Threw It All Away (Take 1)
DR12      -0.49 dB   -14.35 dB      2:27 09-To Be Alone with You (Take 1)
DR13      -0.27 dB   -16.48 dB      3:25 10-Lay, Lady, Lay (Take 2)
DR12      -0.26 dB   -15.37 dB      2:38 11-One More Night (Take 2)
DR12      -1.06 dB   -14.81 dB      4:07 12-Western Road (Take 1)
DR10       0.00 dB   -13.42 dB      2:07 13-Peggy Day (Take 1)
DR12      -0.37 dB   -15.50 dB      2:07 14-Tell Me That It Isn't True (Take 2)
DR14       0.00 dB   -15.83 dB      2:07 15-Country Pie (Take 2)
DR12      -2.19 dB   -16.71 dB      3:35 16-I Still Miss Someone (Take 5)
DR13      -4.09 dB   -20.84 dB      2:21 17-Don't Think Twice, It's All Right / Understand Your Man (Rehearsal)
DR12      -3.31 dB   -17.65 dB      4:06 18-One Too Many Mornings (Take 3)
DR12      -3.03 dB   -17.74 dB      2:34 19-Mountain Dew (Take 1)
DR12      -3.27 dB   -17.64 dB      1:50 20-Mountain Dew (Take 2)
DR12      -2.65 dB   -17.11 dB      2:25 21-I Still Miss Someone (Take 2)
DR13      -1.90 dB   -16.81 dB      6:48 22-Careless Love (Take 1)
DR13      -0.65 dB   -15.61 dB      3:05 23-Matchbox (Take 1)
DR12      -0.28 dB   -15.11 dB      2:42 24-That's All Right, Mama (Take 1)
DR12      -0.40 dB   -16.51 dB      2:12 25-Mystery Train / This Train Is Bound for Glory (Take 1)
DR12      -1.78 dB   -16.47 dB      2:04 26-Big River (Take 1)
DR13      -3.47 dB   -22.49 dB      3:04 27-Girl from the North Country (Rehearsal)
DR13      -3.87 dB   -20.78 dB      2:29 28-Girl from the North Country (Take 1)
DR13      -2.16 dB   -17.23 dB      2:41 29-I Walk the Line (Take 2)
DR14      -1.05 dB   -17.88 dB      1:14 30-Guess Things Happen That Way (Rehearsal)
DR13      -2.52 dB   -18.03 dB      1:46 31-Guess Things Happen That Way (Take 3)
DR13      -3.11 dB   -19.53 dB      1:37 32-Five Feet High and Rising (Take 1)
DR13      -3.62 dB   -18.91 dB      3:17 33-You Are My Sunshine (Take 1)
DR11      -3.61 dB   -17.98 dB      3:00 34-Ring of Fire (Take 1)
DR14     -13.44 dB   -32.99 dB      0:21 35-Studio Chatter
DR12      -4.57 dB   -19.97 dB      3:11 36-Wanted Man (Take 1)
DR12      -5.61 dB   -20.93 dB      1:40 37-Amen (Rehearsal)
DR12      -4.42 dB   -20.88 dB      2:36 38-Just a Closer Walk with Thee (Take 1)
DR12      -3.48 dB   -19.29 dB      2:56 39-Jimmie Rodgers Medley No. 1 (Take 1)
DR14      -2.93 dB   -20.14 dB      3:36 40-Jimmie Rodgers Medley No. 2 (Take 2)
DR12      -1.64 dB   -17.71 dB      2:22 41-I Threw It All Away (Live on The Johnny Cash Show) (Mono)
DR11      -4.18 dB   -16.77 dB      2:32 42-Living the Blues (Live on The Johnny Cash Show) (Mono)
DR12      -3.95 dB   -18.19 dB      3:19 43-Girl from the North Country (Live on The Johnny Cash Show) (Mono)
DR12      -3.35 dB   -17.28 dB      2:28 44-Ring of Fire (Outtake)
DR13      -2.74 dB   -17.91 dB      3:46 45-Folsom Prison Blues (Outtake)
DR13      -9.44 dB   -27.76 dB      0:42 46-Earl Scruggs Interview (Mono)
DR12      -4.08 dB   -18.52 dB      2:35 47-East Virginia Blues (Mono)
DR12      -3.44 dB   -17.83 dB      2:38 48-To Be Alone with You (Mono)
DR10      -4.46 dB   -17.85 dB      1:52 49-Honey, Just Allow Me One More Chance (Mono)
DR13      -4.02 dB   -20.05 dB      1:51 50-Nashville Skyline Rag
--------------------------------------------------------------------------------

Number of tracks:  50
Official DR value: DR12

Samplerate:        44100 Hz
Channels:          2
Bits per sample:   16
Bitrate:           823 kbps
Codec:             FLAC
================================================================================




Create a new paste based on this one


Comments: