[ create a new paste ] login | about

Link: http://codepad.org/lSRwSZeb    [ raw code | fork ]

Plain Text, pasted on Jul 1:
foobar2000 1.4.4 / Dynamic Range Meter 1.1.1
log date: 2019-07-01 11:58:07

--------------------------------------------------------------------------------
Analyzed: Phil Collins / Remixed Sides
--------------------------------------------------------------------------------

DR         Peak         RMS     Duration Track
--------------------------------------------------------------------------------
DR16       0.00 dB   -19.00 dB      7:32 01-In the Air Tonight (Ben Liebrand Extended Version)
DR9       -0.10 dB   -14.70 dB      5:07 02-In the Air Tonight ('88 Remix)
DR8       -0.02 dB   -10.28 dB      6:21 03-Easy Lover (Extended Dance Remix) [with Philip Bailey]
DR14      -0.12 dB   -16.45 dB      8:07 04-Take Me Home (Extended Remix)
DR15      -0.16 dB   -17.32 dB      6:35 05-Sussudio (Extended Remix)
DR12      -0.05 dB   -15.02 dB      5:52 06-Who Said I Would (Extended Remix)
DR13      -0.02 dB   -14.42 dB      6:56 07-Only You Know and I Know (Extended Remix)
DR14       0.00 dB   -16.14 dB      6:36 08-Don't Lose My Number (Extended Remixed; Version)
DR14      -0.13 dB   -16.39 dB      6:21 09-One More Night (Extended Remix)
DR9       -0.10 dB   -12.12 dB      5:28 10-The Roof Is Leaking (Nicka's Stella Polaris Interpretation)
DR8       -0.01 dB   -10.63 dB      7:35 11-Medley Mega Mix: Sussudio / Don't Lose My Number / You Can't Hurry Love
DR8       -0.10 dB    -9.02 dB      5:38 12-Something Happened on the Way to Heaven (One World Remix)
DR8       -0.10 dB    -8.60 dB      7:59 13-Hang in Long Enough (Pettibone 12" Mix)
DR8       -0.10 dB    -9.20 dB      6:10 14-Hang in Long Enough (Pettibone Dub Mix)
DR10      -0.12 dB   -12.32 dB      7:11 15-Hang in Long Enough (Pop Club Mix)
DR9       -0.12 dB   -10.58 dB      5:05 16-Hang in Long Enough (Dub 1)
DR6       -0.10 dB    -7.69 dB      9:10 17-Wear My Hat (Hat Dance Mix)
DR6       -0.10 dB    -7.43 dB      6:40 18-Wear My Hat (Wear My Dub)
--------------------------------------------------------------------------------

Number of tracks:  18
Official DR value: DR10

Samplerate:        44100 Hz
Channels:          2
Bits per sample:   16
Bitrate:           1011 kbps
Codec:             FLAC
================================================================================




Create a new paste based on this one


Comments: