[ create a new paste ] login | about

Link: http://codepad.org/lTz8cyAY    [ raw code | fork ]

Plain Text, pasted on Aug 13:
[CUETools log; Date: 8/12/2016 4:17:44 PM; Version: 2.1.5]
[CTDB TOCID: 9UAJOCpCsmcyRg6lv1KOXIeZ67Y-] found.
Track | CTDB Status
  1   | (1/1) Accurately ripped
  2   | (1/1) Accurately ripped
  3   | (1/1) Accurately ripped
  4   | (1/1) Accurately ripped
  5   | (1/1) Accurately ripped
  6   | (1/1) Accurately ripped
  7   | (1/1) Accurately ripped
  8   | (1/1) Accurately ripped
  9   | (1/1) Accurately ripped
 10   | (1/1) Accurately ripped
 11   | (1/1) Accurately ripped
 12   | (1/1) Accurately ripped
 13   | (1/1) Accurately ripped
[AccurateRip ID: 001309bd-00bfdc24-be0a760d] found.
Track   [  CRC   |   V2   ] Status
 01     [52d6c8ca|55e645a0] (0+2/2) Accurately ripped
 02     [b0689483|6fda490f] (0+2/2) Accurately ripped
 03     [ea7b2c95|642bffc3] (0+2/2) Accurately ripped
 04     [9a57f2d9|0630dcce] (0+2/2) Accurately ripped
 05     [99a2bd79|723654a3] (0+2/2) Accurately ripped
 06     [439a37e3|99dc3fa6] (0+2/2) Accurately ripped
 07     [7ca87033|22991b40] (0+2/2) Accurately ripped
 08     [f28a2be1|11173736] (0+2/2) Accurately ripped
 09     [338cd067|e45516d8] (0+2/2) Accurately ripped
 10     [386caf1a|97dd427d] (0+2/2) Accurately ripped
 11     [9546608b|4796f395] (0+2/2) Accurately ripped
 12     [ca3913f4|5ade3823] (0+2/2) Accurately ripped
 13     [44d9960b|e01b0b37] (0+2/2) Accurately ripped

Track Peak [ CRC32  ] [W/O NULL] [  LOG   ]
 --   99.3 [1C2823AC] [0E5BA90B]   CRC32   
 01   99.3 [1AD25560] [8C9165D0]           
 02   98.7 [51A02E89] [11750C46]           
 03   99.0 [C0C76734] [54FAECA0]           
 04   99.3 [16DE563A] [D3F649E3]           
 05   99.2 [4D8BBF9E] [49E1EF4F]           
 06   99.1 [E1021E4D] [49839B98]           
 07   97.6 [5DEE8795] [BD710F2B]           
 08   99.1 [31108843] [3AE8A65C]           
 09   99.3 [7EF9E227] [D8D0256A]           
 10   98.9 [9554A576] [F63E6DA0]           
 11   99.2 [DE90C221] [ED292B4E]           
 12   99.0 [9B0B7649] [2959A448]           
 13   98.0 [C19DFA6E] [310ADE9F]           



Create a new paste based on this one


Comments: