[ create a new paste ] login | about

Link: http://codepad.org/lfnyP122    [ raw code | fork ]

Plain Text, pasted on Nov 16:
Exact Audio Copy V1.2 from 12. August 2016

EAC extraction logfile from 12. November 2016, 12:48

Motley Crue / The End - Live In Los Angeles

Used drive  : PIONEER DVD-RW DVR-220RS   Adapter: 1  ID: 1

Read mode               : Secure
Utilize accurate stream : Yes
Defeat audio cache      : Yes
Make use of C2 pointers : No

Read offset correction                      : 6
Overread into Lead-In and Lead-Out          : No
Fill up missing offset samples with silence : Yes
Delete leading and trailing silent blocks   : No
Null samples used in CRC calculations       : Yes
Used interface                              : Native Win32 interface for Win NT & 2000

Used output format              : User Defined Encoder
Selected bitrate                : 768 kBit/s
Quality                         : High
Add ID3 tag                     : No
Command line compressor         : C:\Program Files (x86)\Exact Audio Copy\Wavpack\wavpack.exe
Additional command line options : -hm %source% %dest%


TOC of the extracted CD

     Track |   Start  |  Length  | Start sector | End sector 
    ---------------------------------------------------------
        1  |  0:00.00 |  0:28.27 |         0    |     2126   
        2  |  0:28.27 |  4:33.06 |      2127    |    22607   
        3  |  5:01.33 |  5:24.16 |     22608    |    46923   
        4  | 10:25.49 |  5:53.72 |     46924    |    73470   
        5  | 16:19.46 |  4:21.64 |     73471    |    93109   
        6  | 20:41.35 |  4:44.15 |     93110    |   114424   
        7  | 25:25.50 |  4:21.12 |    114425    |   134011   
        8  | 29:46.62 |  4:13.69 |    134012    |   153055   
        9  | 34:00.56 |  4:07.17 |    153056    |   171597   
       10  | 38:07.73 |  4:49.31 |    171598    |   193303   
       11  | 42:57.29 |  2:36.59 |    193304    |   205062   
       12  | 45:34.13 |  3:19.13 |    205063    |   220000   
       13  | 48:53.26 |  4:42.61 |    220001    |   241211   
       14  | 53:36.12 |  5:12.40 |    241212    |   264651   
       15  | 58:48.52 |  7:27.30 |    264652    |   298206   
       16  | 66:16.07 |  5:47.06 |    298207    |   324237   


Range status and errors

Selected range

     Filename C:\_NL+_\_CD\Motley Crue - The End - Live In Los Angeles.wav

     Peak level 100.0 %
     Extraction speed 8.3 X
     Range quality 100.0 %
     Test CRC 53232994
     Copy CRC 53232994
     Copy OK

No errors occurred

 
AccurateRip summary
 
Track  1  not present in database
Track  2  not present in database
Track  3  not present in database
Track  4  not present in database
Track  5  not present in database
Track  6  not present in database
Track  7  not present in database
Track  8  not present in database
Track  9  not present in database
Track 10  not present in database
Track 11  not present in database
Track 12  not present in database
Track 13  not present in database
Track 14  not present in database
Track 15  not present in database
Track 16  not present in database
 
None of the tracks are present in the AccurateRip database

End of status report

---- CUETools DB Plugin V2.1.6

[CTDB TOCID: 3H1AOlmUcJWTvBqK0HSofyv5OuQ-] found
Submit result: 3H1AOlmUcJWTvBqK0HSofyv5OuQ- has been confirmed
Track | CTDB Status
  1   | (7/7) Accurately ripped
  2   | (7/7) Accurately ripped
  3   | (7/7) Accurately ripped
  4   | (7/7) Accurately ripped
  5   | (7/7) Accurately ripped
  6   | (7/7) Accurately ripped
  7   | (7/7) Accurately ripped
  8   | (7/7) Accurately ripped
  9   | (7/7) Accurately ripped
 10   | (7/7) Accurately ripped
 11   | (7/7) Accurately ripped
 12   | (7/7) Accurately ripped
 13   | (7/7) Accurately ripped
 14   | (7/7) Accurately ripped
 15   | (7/7) Accurately ripped
 16   | (7/7) Accurately ripped


==== Log checksum 172B14F647C77584905FA7FDE7184CF2DA7C90E6A28A235C043C4BCAC09B5B32 ====



Create a new paste based on this one


Comments: