[ create a new paste ] login | about

Link: http://codepad.org/lgFz9ZeF    [ raw code | fork ]

Plain Text, pasted on Jul 30:
Disc 1
foobar2000 1.5 / Dynamic Range Meter 1.1.1
log date: 2020-07-30 22:09:20

--------------------------------------------------------------------------------
Analyzed: Anner Bylsma / Suites For Violoncello Solo, BWV 1007-1012
--------------------------------------------------------------------------------

DR         Peak         RMS     Duration Track
--------------------------------------------------------------------------------
DR11      -3.79 dB   -20.13 dB      2:51 01-Suite for Violoncello Solo No.1 in G major, BWV 1007 - I. Prelude
DR14      -0.01 dB   -20.55 dB      4:48 02-Suite for Violoncello Solo No.1 in G major, BWV 1007 - II. Allemande
DR13      -3.77 dB   -20.70 dB      2:43 03-Suite for Violoncello Solo No.1 in G major, BWV 1007 - III. Courante
DR12      -3.47 dB   -20.34 dB      2:27 04-Suite for Violoncello Solo No.1 in G major, BWV 1007 - IV. Sarabande
DR12      -3.95 dB   -20.10 dB      3:40 05-Suite for Violoncello Solo No.1 in G major, BWV 1007 - V. Menuet I and Menuet II
DR13      -2.44 dB   -19.33 dB      1:35 06-Suite for Violoncello Solo No.1 in G major, BWV 1007 - VI. Gigue
DR12      -1.52 dB   -18.23 dB      3:30 07-Suite for Violoncello Solo No.2 in D minor, BWV 1008 - I. Prelude
DR12      -2.02 dB   -19.32 dB      4:43 08-Suite for Violoncello Solo No.2 in D minor, BWV 1008 - II. Allemande
DR12      -1.73 dB   -18.52 dB      1:57 09-Suite for Violoncello Solo No.2 in D minor, BWV 1008 - III. Courante
DR11      -4.45 dB   -20.43 dB      3:35 10-Suite for Violoncello Solo No.2 in D minor, BWV 1008 - IV. Sarabande
DR13      -4.05 dB   -20.83 dB      3:21 11-Suite for Violoncello Solo No.2 in D minor, BWV 1008 - V. Menuet I and Menuet II
DR12      -2.26 dB   -19.78 dB      2:33 12-Suite for Violoncello Solo No.2 in D minor, BWV 1008 - VI. Gigue
DR12      -1.36 dB   -18.57 dB      2:43 13-Suite for Violoncello Solo No.3 in C major, BWV 1009 - I. Prelude
DR13      -2.64 dB   -20.14 dB      4:09 14-Suite for Violoncello Solo No.3 in C major, BWV 1009 - II. Allemande
DR13      -2.97 dB   -20.05 dB      2:28 15-Suite for Violoncello Solo No.3 in C major, BWV 1009 - III. Courante
DR13      -1.10 dB   -19.33 dB      2:56 16-Suite for Violoncello Solo No.3 in C major, BWV 1009 - IV. Sarabande
DR12      -4.38 dB   -21.48 dB      2:29 17-Suite for Violoncello Solo No.3 in C major, BWV 1009 - V. Bourree I and Bourree II
DR14      -0.73 dB   -18.35 dB      2:51 18-Suite for Violoncello Solo No.3 in C major, BWV 1009 - VI. Gigue
--------------------------------------------------------------------------------

Number of tracks:  18
Official DR value: DR12

Samplerate:        88200 Hz
Channels:          2
Bits per sample:   24
Bitrate:           2418 kbps
Codec:             FLAC
================================================================================


Disc 2
foobar2000 1.5 / Dynamic Range Meter 1.1.1
log date: 2020-07-30 22:09:37

--------------------------------------------------------------------------------
Analyzed: Anner Bylsma / Suites For Violoncello Solo, BWV 1007-1012
--------------------------------------------------------------------------------

DR         Peak         RMS     Duration Track
--------------------------------------------------------------------------------
DR12      -2.32 dB   -18.81 dB      4:03 01-Suite for Violoncello Solo No.4 in E-flat major, BWV 1010 - I. Prelude
DR14      -1.03 dB   -21.22 dB      4:25 02-Suite for Violoncello Solo No.4 in E-flat major, BWV 1010 - II. Allemande
DR13      -0.01 dB   -19.17 dB      3:18 03-Suite for Violoncello Solo No.4 in E-flat major, BWV 1010 - III. Courante
DR12      -5.15 dB   -21.11 dB      3:13 04-Suite for Violoncello Solo No.4 in E-flat major, BWV 1010 - IV. Sarabande
DR13      -6.15 dB   -21.53 dB      4:03 05-Suite for Violoncello Solo No.4 in E-flat major, BWV 1010 - V. Bourree I and Bourree II
DR13      -3.58 dB   -21.13 dB      2:47 06-Suite for Violoncello Solo No.4 in E-flat major, BWV 1010 - VI. Gigue
DR14      -2.81 dB   -21.08 dB      5:06 07-Suite for Violoncello Solo No.5 in C minor, BWV 1011 - I. Prelude
DR14      -2.66 dB   -21.41 dB      5:24 08-Suite for Violoncello Solo No.5 in C minor, BWV 1011 - II. Allemande
DR13      -1.03 dB   -19.50 dB      1:49 09-Suite for Violoncello Solo No.5 in C minor, BWV 1011 - III. Courante
DR12      -7.69 dB   -24.38 dB      3:14 10-Suite for Violoncello Solo No.5 in C minor, BWV 1011 - IV. Sarabande
DR13      -4.77 dB   -20.59 dB      4:14 11-Suite for Violoncello Solo No.5 in C minor, BWV 1011 - V. Gavotte I and Gavotte II
DR12      -1.23 dB   -20.16 dB      1:56 12-Suite for Violoncello Solo No.5 in C minor, BWV 1011 - VI. Gigue
DR12      -5.99 dB   -22.41 dB      4:30 13-Suite for Violoncello Solo No.6 in D major, BWV 1012 - I. Prelude
DR13      -7.99 dB   -25.61 dB      8:28 14-Suite for Violoncello Solo No.6 in D major, BWV 1012 - II. Allemande
DR13      -8.12 dB   -23.82 dB      3:38 15-Suite for Violoncello Solo No.6 in D major, BWV 1012 - III. Courante
DR14      -3.31 dB   -21.92 dB      4:20 16-Suite for Violoncello Solo No.6 in D major, BWV 1012 - IV. Sarabande
DR13      -5.01 dB   -21.09 dB      3:47 17-Suite for Violoncello Solo No.6 in D major, BWV 1012 - V. Gavotte I and Gavotte II
DR13      -3.88 dB   -21.88 dB      3:47 18-Suite for Violoncello Solo No.6 in D major, BWV 1012 - VI. Gigue
--------------------------------------------------------------------------------

Number of tracks:  18
Official DR value: DR13

Samplerate:        88200 Hz
Channels:          2
Bits per sample:   24
Bitrate:           2480 kbps
Codec:             FLAC
================================================================================




Create a new paste based on this one


Comments: