[ create a new paste ] login | about

Link: http://codepad.org/lhDGl4Q2    [ raw code | fork ]

Plain Text, pasted on Oct 29:
foobar2000 1.3.17 / Dynamic Range Meter 1.1.1
log date: 2018-10-29 12:35:24

--------------------------------------------------------------------------------
Analyzed: Charles Aznavour / IDIOTE JE T'AIME
--------------------------------------------------------------------------------

DR         Peak         RMS     Duration Track
--------------------------------------------------------------------------------
DR10      -0.80 dB   -13.28 dB      6:31 01-Non je n'ai rien oublie
DR9       -0.58 dB   -10.88 dB      2:42 02-Un par un
DR9       -0.61 dB   -11.83 dB      4:40 03-Ma vie oh ma vie
DR8       -0.65 dB   -11.32 dB      3:07 04-Comme des roses
DR10      -0.01 dB   -12.50 dB      3:59 05-Mourir d'aimer
DR9       -1.54 dB   -11.87 dB      3:57 06-L'instant present
DR9       -1.05 dB   -12.38 dB      3:13 07-Partir
DR9       -0.98 dB   -11.43 dB      2:35 08-J'ai vecu
DR9       -0.92 dB   -11.76 dB      3:54 09-Je ne veux plus parler d'amour
DR9       -0.95 dB   -11.83 dB      3:29 10-Idiote je t'aime
DR9       -1.02 dB   -12.05 dB      4:59 11-A ma femme
DR8       -0.91 dB   -11.89 dB      2:12 12-Ton nom
DR11      -0.92 dB   -13.31 dB      5:57 13-Les plaisirs demodes
DR9       -1.13 dB   -12.65 dB      4:56 14-Comme ils disent
DR10      -1.37 dB   -13.47 dB      2:42 15-L'indifference
DR10      -0.88 dB   -12.56 dB      3:21 16-Je t'aime
DR9       -1.01 dB   -12.81 dB      2:47 17-On se reveillera
DR10      -1.23 dB   -14.38 dB      4:36 18-Me voila seul
--------------------------------------------------------------------------------

Number of tracks:  18
Official DR value: DR9

Samplerate:        88200 Hz
Channels:          2
Bits per sample:   24
Bitrate:           2659 kbps
Codec:             FLAC
================================================================================




Create a new paste based on this one


Comments: