[ create a new paste ] login | about

Link: http://codepad.org/ljnexS6G    [ raw code | fork ]

Plain Text, pasted on Sep 16:
Exact Audio Copy V0.99 prebeta 5 from 4. May 2009

Отчёт EAC об извлечении, выполненном 6. сентября 2009, 0:33

Mills Brothers / Golden Greats [disc 1]

Дисковод: PIONEER DVD-RW  DVR-217F   Adapter: 0  ID: 1

Режим чтения                 : Достоверность
Использование точного потока : Да
Отключение кэша аудио        : Да
Использование указателей C2  : Нет

Коррекция смещения при чтении                     : 96
Способность читать области Lead-in и Lead-out     : Нет
Заполнение пропущенных сэмплов тишиной            : Да
Удаление блоков с тишиной в начале и конце        : Нет
При вычислениях CRC использовались нулевые сэмплы : Да
Интерфейс                                         : Установленный внешний ASPI-интерфейс

Выходной формат          : Пользовательский кодировщик
Выбранный битрейт        : 128 kBit/s
Качество                 : Высокий
Добавление ID3-тэга      : Нет
Утилита сжатия           : C:\Program Files\FLAC\FLAC frontend.exe
Дополнительные параметры : -8 -V %s


TOC извлечённого CD

     Трек |   Старт  | Длительность | Начальный сектор | Конечный сектор 
    ---------------------------------------------------------------------
       1  |  0:00.00 |    1:55.43   |           0      |       8667      
       2  |  1:55.43 |    2:26.63   |        8668      |      19680      
       3  |  4:22.31 |    3:02.24   |       19681      |      33354      
       4  |  7:24.55 |    3:15.72   |       33355      |      48051      
       5  | 10:40.52 |    2:24.01   |       48052      |      58852      
       6  | 13:04.53 |    3:14.41   |       58853      |      73443      
       7  | 16:19.19 |    2:04.04   |       73444      |      82747      
       8  | 18:23.23 |    2:18.21   |       82748      |      93118      
       9  | 20:41.44 |    3:10.30   |       93119      |     107398      
      10  | 23:51.74 |    3:05.31   |      107399      |     121304      
      11  | 26:57.30 |    3:01.52   |      121305      |     134931      
      12  | 29:59.07 |    2:55.22   |      134932      |     148078      
      13  | 32:54.29 |    2:36.60   |      148079      |     159838      
      14  | 35:31.14 |    3:00.35   |      159839      |     173373      
      15  | 38:31.49 |    2:21.09   |      173374      |     183957      
      16  | 40:52.58 |    2:20.67   |      183958      |     194524      
      17  | 43:13.50 |    3:00.13   |      194525      |     208037      
      18  | 46:13.63 |    2:33.53   |      208038      |     219565      
      19  | 48:47.41 |    2:33.35   |      219566      |     231075      
      20  | 51:21.01 |    2:47.18   |      231076      |     243618      
      21  | 54:08.19 |    3:06.15   |      243619      |     257583      
      22  | 57:14.34 |    3:06.31   |      257584      |     271564      
      23  | 60:20.65 |    2:58.22   |      271565      |     284936      
      24  | 63:19.12 |    2:45.56   |      284937      |     297367      
      25  | 66:04.68 |    2:48.24   |      297368      |     309991      
      26  | 68:53.17 |    2:46.21   |      309992      |     322462      


Характеристики диапазона извлечения и сообщения об ошибках

Выбранный диапазон

     Имя файла C:\Torrent\The Mills Brothers - Golden Greats\CD 1\Mills Brothers - Golden Greats [disc 1].wav

     Пиковый уровень 98.9 %
     Качество диапазона 99.9 %
     CRC теста 7CC56845
     CRC копии 7CC56845
     Копирование... OK

Ошибок не произошло

 
AccurateRip: сводка
 
Трек  1  точность не определена (достоверность 1)  [6A894BF3], AccurateRip вернул [5BC6A7A8]
Трек  2  точность не определена (достоверность 1)  [06937817], AccurateRip вернул [791C2103]
Трек  3  точность не определена (достоверность 1)  [F4E41D0D], AccurateRip вернул [EDE859E2]
Трек  4  точность не определена (достоверность 1)  [F17381F8], AccurateRip вернул [918CE44D]
Трек  5  точность не определена (достоверность 1)  [3D6EBC0B], AccurateRip вернул [C4F6FBCF]
Трек  6  точность не определена (достоверность 1)  [DB5EE614], AccurateRip вернул [112192D8]
Трек  7  точность не определена (достоверность 1)  [72000749], AccurateRip вернул [38A5F041]
Трек  8  точность не определена (достоверность 1)  [304E80F1], AccurateRip вернул [DAF02335]
Трек  9  точность не определена (достоверность 1)  [38A8533F], AccurateRip вернул [7908BD2F]
Трек 10  точность не определена (достоверность 1)  [F1C50CB4], AccurateRip вернул [094DFBC2]
Трек 11  точность не определена (достоверность 1)  [C1CF287C], AccurateRip вернул [8DDE3A1D]
Трек 12  точность не определена (достоверность 1)  [22A3E1EB], AccurateRip вернул [27BA7CF5]
Трек 13  точность не определена (достоверность 1)  [EAFCF918], AccurateRip вернул [4EC836A4]
Трек 14  точность не определена (достоверность 1)  [C2F6FFFA], AccurateRip вернул [3C4EF9F1]
Трек 15  точность не определена (достоверность 1)  [7D75D663], AccurateRip вернул [2198BB98]
Трек 16  точность не определена (достоверность 1)  [FA872F64], AccurateRip вернул [10D16047]
Трек 17  точность не определена (достоверность 1)  [1FC58115], AccurateRip вернул [7C06DE5C]
Трек 18  точность не определена (достоверность 1)  [D352F30F], AccurateRip вернул [508E52B4]
Трек 19  точность не определена (достоверность 1)  [6747EE34], AccurateRip вернул [4DB2B690]
Трек 20  точность не определена (достоверность 1)  [9FE1CC3C], AccurateRip вернул [1A6E41D8]
Трек 21  точность не определена (достоверность 1)  [62B75BEB], AccurateRip вернул [78F9998F]
Трек 22  точность не определена (достоверность 1)  [E5A067C4], AccurateRip вернул [59764B5E]
Трек 23  точность не определена (достоверность 1)  [043DD0D6], AccurateRip вернул [50422EDA]
Трек 24  точность не определена (достоверность 1)  [5FB23FA9], AccurateRip вернул [2F6766FF]
Трек 25  точность не определена (достоверность 1)  [D8381710], AccurateRip вернул [B1FE6DF6]
Трек 26  точность не определена (достоверность 1)  [7B3C6247], AccurateRip вернул [2FC1BE2F]
 
Ни один трек не прошёл проверки на точность
В вашей базе может быть иной вариант штамповки диска

Конец отчёта



Create a new paste based on this one


Comments: