[ create a new paste ] login | about

Link: http://codepad.org/lkMSn4ex    [ raw code | fork ]

Plain Text, pasted on Jul 30:
Disc 1
foobar2000 1.5 / Dynamic Range Meter 1.1.1
log date: 2020-07-30 21:06:42

--------------------------------------------------------------------------------
Analyzed: Anner Bylsma / Bach: 6 Suites for Violoncello Solo (1992 Recording)
--------------------------------------------------------------------------------

DR         Peak         RMS     Duration Track
--------------------------------------------------------------------------------
DR12      -8.44 dB   -25.00 dB      2:49 01-Suite for Violoncello Solo No.1 in G major, BWV 1007 - I. Prelude
DR15      -4.88 dB   -25.40 dB      4:48 02-Suite for Violoncello Solo No.1 in G major, BWV 1007 - II. Allemande
DR13      -8.26 dB   -25.54 dB      2:43 03-Suite for Violoncello Solo No.1 in G major, BWV 1007 - III. Courante
DR12      -8.13 dB   -25.20 dB      2:27 04-Suite for Violoncello Solo No.1 in G major, BWV 1007 - IV. Sarabande
DR12      -8.77 dB   -24.97 dB      3:40 05-Suite for Violoncello Solo No.1 in G major, BWV 1007 - V. Menuet I and Menuet II
DR13      -7.31 dB   -23.98 dB      1:27 06-Suite for Violoncello Solo No.1 in G major, BWV 1007 - VI. Gigue
DR12      -6.21 dB   -23.19 dB      3:30 07-Suite for Violoncello Solo No.2 in D minor, BWV 1008 - I. Prelude
DR13      -6.82 dB   -24.23 dB      4:43 08-Suite for Violoncello Solo No.2 in D minor, BWV 1008 - II. Allemande
DR13      -6.56 dB   -23.47 dB      1:57 09-Suite for Violoncello Solo No.2 in D minor, BWV 1008 - III. Courante
DR12      -9.10 dB   -25.28 dB      3:35 10-Suite for Violoncello Solo No.2 in D minor, BWV 1008 - IV. Sarabande
DR13      -8.58 dB   -25.65 dB      3:21 11-Suite for Violoncello Solo No.2 in D minor, BWV 1008 - V. Menuet I and Menuet II
DR12      -6.84 dB   -24.50 dB      2:26 12-Suite for Violoncello Solo No.2 in D minor, BWV 1008 - VI. Gigue
DR12      -6.23 dB   -23.51 dB      2:43 13-Suite for Violoncello Solo No.3 in C major, BWV 1009 - I. Prelude
DR13      -7.22 dB   -25.01 dB      4:09 14-Suite for Violoncello Solo No.3 in C major, BWV 1009 - II. Allemande
DR13      -7.76 dB   -24.93 dB      2:28 15-Suite for Violoncello Solo No.3 in C major, BWV 1009 - III. Courante
DR13      -5.60 dB   -24.24 dB      2:56 16-Suite for Violoncello Solo No.3 in C major, BWV 1009 - IV. Sarabande
DR13      -9.05 dB   -26.26 dB      2:29 17-Suite for Violoncello Solo No.3 in C major, BWV 1009 - V. Bourree I and Bourree II
DR14      -5.47 dB   -23.30 dB      2:51 18-Suite for Violoncello Solo No.3 in C major, BWV 1009 - VI. Gigue
--------------------------------------------------------------------------------

Number of tracks:  18
Official DR value: DR13

Samplerate:        2822400 Hz / PCM Samplerate: 176400 Hz
Channels:          2
Bits per sample:   1
Bitrate:           5645 kbps
Codec:             DSD64
================================================================================


Disc 2
foobar2000 1.5 / Dynamic Range Meter 1.1.1
log date: 2020-07-30 21:08:04

--------------------------------------------------------------------------------
Analyzed: Anner Bylsma / Bach: 6 Suites for Violoncello Solo (1992 Recording)
--------------------------------------------------------------------------------

DR         Peak         RMS     Duration Track
--------------------------------------------------------------------------------
DR12      -7.04 dB   -23.72 dB      4:01 01-Suite for Violoncello Solo No.4 in E-flat major, BWV 1010 - I. Prelude
DR14      -5.60 dB   -25.99 dB      4:25 02-Suite for Violoncello Solo No.4 in E-flat major, BWV 1010 - II. Allemande
DR13      -4.84 dB   -24.06 dB      3:18 03-Suite for Violoncello Solo No.4 in E-flat major, BWV 1010 - III. Courante
DR13      -9.85 dB   -25.90 dB      3:13 04-Suite for Violoncello Solo No.4 in E-flat major, BWV 1010 - IV. Sarabande
DR13     -10.73 dB   -26.37 dB      4:03 05-Suite for Violoncello Solo No.4 in E-flat major, BWV 1010 - V. Bourree I and Bourree II
DR13      -8.03 dB   -25.77 dB      2:40 06-Suite for Violoncello Solo No.4 in E-flat major, BWV 1010 - VI. Gigue
DR14      -7.52 dB   -25.86 dB      5:06 07-Suite for Violoncello Solo No.5 in C minor, BWV 1011 - I. Prelude
DR14      -7.42 dB   -26.21 dB      5:24 08-Suite for Violoncello Solo No.5 in C minor, BWV 1011 - II. Allemande
DR13      -5.80 dB   -24.38 dB      1:49 09-Suite for Violoncello Solo No.5 in C minor, BWV 1011 - III. Courante
DR13     -11.95 dB   -28.84 dB      3:14 10-Suite for Violoncello Solo No.5 in C minor, BWV 1011 - IV. Sarabande
DR13      -9.50 dB   -25.40 dB      4:14 11-Suite for Violoncello Solo No.5 in C minor, BWV 1011 - V. Gavotte I and Gavotte II
DR12      -5.96 dB   -24.79 dB      1:48 12-Suite for Violoncello Solo No.5 in C minor, BWV 1011 - VI. Gigue
DR13     -10.34 dB   -26.93 dB      4:30 13-Suite for Violoncello Solo No.6 in D major, BWV 1012 - I. Prelude
DR13     -12.22 dB   -29.59 dB      8:28 14-Suite for Violoncello Solo No.6 in D major, BWV 1012 - II. Allemande
DR13     -12.71 dB   -28.15 dB      3:38 15-Suite for Violoncello Solo No.6 in D major, BWV 1012 - III. Courante
DR14      -8.02 dB   -26.50 dB      4:20 16-Suite for Violoncello Solo No.6 in D major, BWV 1012 - IV. Sarabande
DR13      -9.37 dB   -25.76 dB      3:47 17-Suite for Violoncello Solo No.6 in D major, BWV 1012 - V. Gavotte I and Gavotte II
DR14      -8.54 dB   -26.47 dB      3:47 18-Suite for Violoncello Solo No.6 in D major, BWV 1012 - VI. Gigue
--------------------------------------------------------------------------------

Number of tracks:  18
Official DR value: DR13

Samplerate:        2822400 Hz / PCM Samplerate: 176400 Hz
Channels:          2
Bits per sample:   1
Bitrate:           5645 kbps
Codec:             DSD64
================================================================================




Create a new paste based on this one


Comments: