[ create a new paste ] login | about

Link: http://codepad.org/llcRFw3j    [ raw code | fork ]

Plain Text, pasted on Oct 3:
[CUETools log; Date: 10/3/2016 12:16:24 PM; Version: 2.1.5]
[CTDB TOCID: _sRxC0SkXAXDuGnlKJRJhgvaggw-] found.
Track | CTDB Status
  1   | (45/45) Accurately ripped
  2   | (43/45) Accurately ripped
  3   | (44/45) Accurately ripped
  4   | (45/45) Accurately ripped
  5   | (45/45) Accurately ripped
  6   | (45/45) Accurately ripped
  7   | (45/45) Accurately ripped
  8   | (45/45) Accurately ripped
  9   | (42/45) Accurately ripped
 10   | (44/45) Accurately ripped
 11   | (44/45) Accurately ripped
 12   | (44/45) Accurately ripped
 13   | (45/45) Accurately ripped
 14   | (45/45) Accurately ripped
 15   | (45/45) Accurately ripped
 16   | (45/45) Accurately ripped
 17   | (45/45) Accurately ripped
 18   | (45/45) Accurately ripped
 19   | (45/45) Accurately ripped
 20   | (45/45) Accurately ripped
 21   | (45/45) Accurately ripped
 22   | (45/45) Accurately ripped
 23   | (45/45) Accurately ripped
[AccurateRip ID: 0038f2d5-03c48537-4811b517] found.
Track   [  CRC   |   V2   ] Status
 01     [73f3b236|69e572fe] (41+28/69) Accurately ripped
 02     [d33063b4|80131978] (41+30/71) Accurately ripped
 03     [ce129af0|97a1e441] (41+29/70) Accurately ripped
 04     [579844d6|3e043c5f] (41+27/68) Accurately ripped
 05     [e2eef350|3161ea3d] (41+29/70) Accurately ripped
 06     [42393b33|a4b6d0f4] (41+29/70) Accurately ripped
 07     [1aad55a5|50824424] (41+28/69) Accurately ripped
 08     [ad4c99bb|0985b90f] (41+28/69) Accurately ripped
 09     [3dfbd2c1|b466fda6] (41+29/70) Accurately ripped
 10     [f94c7ddd|7c256753] (41+28/69) Accurately ripped
 11     [482e4cef|f94858ef] (41+28/69) Accurately ripped
 12     [52c0b745|be0accba] (41+28/69) Accurately ripped
 13     [04adc5f2|e865131c] (41+28/69) Accurately ripped
 14     [7d4aeae9|627ab67d] (41+29/70) Accurately ripped
 15     [afcfbafb|ab0d8f5a] (41+28/69) Accurately ripped
 16     [87ab29a4|9bffab4f] (41+29/70) Accurately ripped
 17     [653aa71f|4f788772] (41+27/68) Accurately ripped
 18     [5e4beea6|caf1820c] (41+30/71) Accurately ripped
 19     [5ff114f8|76eed504] (41+27/68) Accurately ripped
 20     [e4028df2|439213d3] (40+28/68) Accurately ripped
 21     [5b2236f5|e041f135] (39+27/66) Accurately ripped
 22     [694abc6d|b7814c53] (36+26/62) Accurately ripped
 23     [f7a214ad|4260e193] (37+26/63) Accurately ripped

Track Peak [ CRC32  ] [W/O NULL] [  LOG   ]
 --  100.0 [23042825] [31E7091E]           
 01  100.0 [2C73F523] [0399626B]   CRC32   
 02  100.0 [C55A7DF9] [8271D1F4]   CRC32   
 03  100.0 [04893D86] [84EF95BF]   CRC32   
 04   68.8 [3904C7DC] [B7605D7A]   CRC32   
 05   74.3 [864EC935] [6605F9E2]   CRC32   
 06   78.4 [E3BFA0AA] [06CEC205]   CRC32   
 07   78.3 [0FEC3066] [26625925]   CRC32   
 08   78.5 [CBFB755D] [D8F9AC8A]   CRC32   
 09   78.5 [D140B57D] [7EC5D95F]   CRC32   
 10   78.5 [18E9DD7C] [B3500260]   CRC32   
 11   70.4 [7FB135A9] [9B6C24D1]   CRC32   
 12   69.9 [D14DA0E5] [AF04F9DF]   CRC32   
 13   62.2 [D3B996CA] [2B8D5F47]   CRC32   
 14   86.6 [08FBE309] [C115B504]   CRC32   
 15   78.4 [84274852] [A878F362]   CRC32   
 16   74.0 [EA6EAB83] [95FBAFC3]   CRC32   
 17   78.8 [3571EB29] [7B2F4910]   CRC32   
 18  100.0 [E2C82451] [7BEE93D0]   CRC32   
 19   99.6 [5FF79778] [F663AF7B]   CRC32   
 20  100.0 [37F9B212] [D7E603FA]   CRC32   
 21   99.9 [6621DE1C] [9CFE0D62]   CRC32   
 22   92.2 [A9162B77] [D9B7CBD8]   CRC32   
 23   95.5 [5E84F6C9] [DD4ACA0C]   CRC32   



Create a new paste based on this one


Comments: