[ create a new paste ] login | about

Link: http://codepad.org/loozOqec    [ raw code | fork ]

Plain Text, pasted on Feb 29:
Disc 1
->
foobar2000 1.5 / Dynamic Range Meter 1.1.1
log date: 2020-02-29 06:33:14

--------------------------------------------------------------------------------
Analyzed: Riccardo Minasi violino   Bizzarrie Armoniche / Biber Sonate del  Rosario CD 1
--------------------------------------------------------------------------------

DR         Peak         RMS     Duration Track
--------------------------------------------------------------------------------
DR13      -2.28 dB   -18.96 dB      5:11 01-Sonata I - Die Verkündigung Mariae
DR14      -1.28 dB   -19.82 dB      6:23 02-Sonata II - Mariae Besuch bei Elisabeth
DR13      -2.05 dB   -19.33 dB      6:05 03-Sonata III - Christi Geburt
DR13      -1.84 dB   -19.50 dB      8:50 04-Sonata IV - Christi Darstellung im Tempel
DR15      -3.05 dB   -23.27 dB      8:29 05-Sonata V - Der Zwölfjährige Jesus im Tempel
DR14      -1.53 dB   -21.47 dB      7:53 06-Sonata VI - Christi Leiden am Ölberg
DR14      -1.06 dB   -21.09 dB      9:27 07-Sonata VII - Christi Geißelung
DR15      -0.03 dB   -18.04 dB      6:00 08-Sonata VIII - Die Dornenkrönung
DR14      -0.16 dB   -18.49 dB      5:55 09-Sonata IX - Die Kreutztragung
DR14      -0.01 dB   -18.43 dB      9:03 10-Sonata X - Die Kreutzigung
--------------------------------------------------------------------------------

Number of tracks:  10
Official DR value: DR14

Samplerate:        88200 Hz
Channels:          2
Bits per sample:   24
Bitrate:           2503 kbps
Codec:             FLAC
================================================================================
->
=========================================================================================================================================================
->
Disc 2
->
foobar2000 1.5 / Dynamic Range Meter 1.1.1
log date: 2020-02-29 06:34:03

--------------------------------------------------------------------------------
Analyzed: Riccardo Minasi violino   Bizzarrie Armoniche / Biber Sonate del  Rosario CD 2
--------------------------------------------------------------------------------

DR         Peak         RMS     Duration Track
--------------------------------------------------------------------------------
DR13      -0.07 dB   -17.62 dB      7:40 01-Sonata XI - Die Auferstehung
DR14      -0.01 dB   -18.34 dB      8:10 02-Sonata XII - Christi Himmelfahrt
DR14      -0.64 dB   -20.10 dB      8:13 03-Sonata XIII - Die Sendung des Heiligen Geistes
DR14      -0.26 dB   -18.48 dB      7:21 04-Sonata XIV - Mariae Himmelfahrt
DR15      -0.72 dB   -21.39 dB     11:34 05-Sonata XV - Die Krönung Mariae
DR15      -0.04 dB   -20.77 dB      8:46 06-Passacaglia in G minor, for solo violin
--------------------------------------------------------------------------------

Number of tracks:  6
Official DR value: DR14

Samplerate:        88200 Hz
Channels:          2
Bits per sample:   24
Bitrate:           2388 kbps
Codec:             FLAC
================================================================================




Create a new paste based on this one


Comments: