[ create a new paste ] login | about

Link: http://codepad.org/lpBj0p8s    [ raw code | fork ]

Plain Text, pasted on Jul 19:
foobar2000 1.3.17 / Dynamic Range Meter 1.1.1
log date: 2018-07-18 14:28:47

--------------------------------------------------------------------------------
Analyzed: Public Image Limited / Metal Box (Second Edition)
--------------------------------------------------------------------------------

DR         Peak         RMS     Duration Track
--------------------------------------------------------------------------------
DR12      -3.28 dB   -17.40 dB     10:37 01-Albatross
DR13      -4.01 dB   -19.06 dB      5:07 02-Memories
DR14      -4.64 dB   -20.18 dB      4:13 03-Swan Lake
DR13      -5.35 dB   -19.76 dB      7:47 04-Poptones
DR13      -4.25 dB   -19.09 dB      4:33 05-Careering
DR13      -3.98 dB   -18.07 dB      3:11 06-Socialist
DR13      -3.42 dB   -19.47 dB      3:09 07-Graveyard
DR9       -6.16 dB   -16.80 dB      3:31 08-The Suit
DR13      -2.80 dB   -19.06 dB      4:32 09-Bad Baby
DR13      -5.11 dB   -20.05 dB      4:42 10-No Birds
DR14      -3.90 dB   -19.94 dB      5:03 11-Chant
DR11      -7.34 dB   -22.06 dB      4:27 12-Radio 4
--------------------------------------------------------------------------------

Number of tracks:  12
Official DR value: DR13

Samplerate:        2822400 Hz / PCM Samplerate: 176400 Hz
Channels:          2
Bits per sample:   1
Bitrate:           5645 kbps
Codec:             DSD64
================================================================================




Create a new paste based on this one


Comments: