[ create a new paste ] login | about

Link: http://codepad.org/lpawuUds    [ raw code | fork ]

Plain Text, pasted on Feb 6:
foobar2000 1.5 / Dynamic Range Meter 1.1.1
log date: 2020-02-06 23:50:03

--------------------------------------------------------------------------------
Analyzed: Nat King Cole / The King of Sound
--------------------------------------------------------------------------------

DR         Peak         RMS     Duration Track
--------------------------------------------------------------------------------
DR10      -2.88 dB   -16.48 dB      3:33 01-Unforgettable
DR12      -0.92 dB   -15.58 dB      3:28 02-Mona Lisa
DR11      -2.05 dB   -17.05 dB      2:53 03-Nature Boy
DR11      -2.55 dB   -17.38 dB      2:54 04-Smile
DR13      -3.86 dB   -19.00 dB      4:36 05-Sweet Lorraine
DR15      -2.27 dB   -20.38 dB      3:03 06-For Sentimental Reasons
DR13      -3.24 dB   -19.25 dB      2:57 07-Tenderly
DR13      -0.09 dB   -16.69 dB      3:06 08-Blue Gardenia
DR12      -3.12 dB   -18.87 dB      2:43 09-A Blossom Fell
DR13      -2.77 dB   -19.91 dB      2:42 10-Walkin' My Baby Back Home
DR14      -1.76 dB   -19.03 dB      3:42 11-Route 66
DR13      -2.07 dB   -17.79 dB      3:07 12-It's Only A Papermoon
DR14      -0.65 dB   -17.43 dB      2:38 13-Straighten Up And Fly Right
DR11      -3.33 dB   -17.04 dB      3:24 14-Too Young
DR13      -0.23 dB   -16.34 dB      3:17 15-For All We Know
DR10      -4.46 dB   -17.34 dB      2:57 16-Answer Me My Love
DR11      -1.01 dB   -14.67 dB      2:52 17-Darling Je Vous Aime Beaucoup
--------------------------------------------------------------------------------

Number of tracks:  17
Official DR value: DR12

Samplerate:        88200 Hz
Channels:          2
Bits per sample:   24
Bitrate:           2529 kbps
Codec:             FLAC
================================================================================




Create a new paste based on this one


Comments: