[ create a new paste ] login | about

Link: http://codepad.org/lsBLQHd6    [ raw code | fork ]

Plain Text, pasted on Nov 26:
[CUETools log; Date: 11/26/2016 7:33:55 AM; Version: 2.1.5]
[CTDB TOCID: ZDlNYMcyozV9iAAIstq4Er0_PkE-] found.
Track | CTDB Status
  1   | (36/36) Accurately ripped
  2   | (36/36) Accurately ripped
  3   | (36/36) Accurately ripped
  4   | (36/36) Accurately ripped
  5   | (36/36) Accurately ripped
  6   | (36/36) Accurately ripped
  7   | (36/36) Accurately ripped
  8   | (36/36) Accurately ripped
  9   | (36/36) Accurately ripped
 10   | (36/36) Accurately ripped
 11   | (36/36) Accurately ripped
 12   | (36/36) Accurately ripped
 13   | (36/36) Accurately ripped
 14   | (34/36) Accurately ripped
 15   | (34/36) Accurately ripped
 16   | (35/36) Accurately ripped
 17   | (36/36) Accurately ripped
 18   | (35/36) Accurately ripped
 19   | (34/36) Accurately ripped
 20   | (33/36) Accurately ripped
 21   | (34/36) Accurately ripped
 22   | (34/36) Accurately ripped
 23   | (33/36) Accurately ripped
 24   | (31/36) Accurately ripped
 25   | (30/36) Accurately ripped
[AccurateRip ID: 0041feb0-04a9d9b9-5211d419] found.
Track   [  CRC   |   V2   ] Status
 01     [01cb3c35|64717834] (021+032/114) Accurately ripped
 02     [f248cbcf|5032cd9b] (021+032/115) Accurately ripped
 03     [0d34d805|fd1d864d] (022+032/115) Accurately ripped
 04     [cf9958c2|14257ff5] (022+032/115) Accurately ripped
 05     [bdbeec7b|61df6b7e] (022+032/116) Accurately ripped
 06     [05259f61|0ddfda9d] (022+032/115) Accurately ripped
 07     [b8af2051|1938b6c9] (022+032/115) Accurately ripped
 08     [ec2fb931|55088d07] (020+032/113) Accurately ripped
 09     [0cfc448f|ae2dd833] (022+032/115) Accurately ripped
 10     [8ba29ed7|a8fc0448] (022+032/115) Accurately ripped
 11     [a47b3b31|e14a5ad4] (022+032/115) Accurately ripped
 12     [03544c63|fc84d170] (022+032/114) Accurately ripped
 13     [2059f273|32e18097] (022+032/114) Accurately ripped
 14     [f207652f|dc11d31b] (022+032/113) Accurately ripped
 15     [d198b62a|fc4faea5] (022+032/113) Accurately ripped
 16     [1cc5f973|f65b0762] (022+032/114) Accurately ripped
 17     [94c96f1e|9b76df7c] (022+031/112) Accurately ripped
 18     [d70790bb|0cc025c9] (022+032/112) Accurately ripped
 19     [8c4091d6|03a77dc2] (022+031/111) Accurately ripped
 20     [33dc258c|cd858350] (022+031/111) Accurately ripped
 21     [4a361e08|17b76588] (019+031/108) Accurately ripped
 22     [4184c4bc|08c0b1b8] (020+033/112) Accurately ripped
 23     [15a1db85|e2bb3bf5] (021+031/112) Accurately ripped
 24     [9116f7ad|a017eff7] (020+030/107) Accurately ripped
 25     [4294d16d|0cfa8722] (000+000/103) No match
Offsetted by 12:
 01     [3bdbf327] (034/114) Accurately ripped
 02     [3a9130e4] (035/115) Accurately ripped
 03     [af0a05c7] (034/115) Accurately ripped
 04     [ad9a25c3] (034/115) Accurately ripped
 05     [03a70dd8] (035/116) Accurately ripped
 06     [19698f76] (034/115) Accurately ripped
 07     [24f80d99] (034/115) Accurately ripped
 08     [6bc6f6f7] (034/113) Accurately ripped
 09     [9c7108e6] (034/115) Accurately ripped
 10     [ca756cf0] (034/115) Accurately ripped
 11     [e6da602d] (034/115) Accurately ripped
 12     [241f770c] (033/114) Accurately ripped
 13     [bc227dfa] (034/114) Accurately ripped
 14     [cab5327c] (034/113) Accurately ripped
 15     [1c9b26f7] (034/113) Accurately ripped
 16     [6d79477e] (034/114) Accurately ripped
 17     [2dc29278] (033/112) Accurately ripped
 18     [e8ccfc22] (033/112) Accurately ripped
 19     [05864e8c] (033/111) Accurately ripped
 20     [051e9ac5] (033/111) Accurately ripped
 21     [fc450679] (033/108) Accurately ripped
 22     [4861b3d6] (032/112) Accurately ripped
 23     [83dc8c43] (033/112) Accurately ripped
 24     [a0a49a9d] (032/107) Accurately ripped
 25     [9fd09e39] (000/103) No match (V2 was not tested)

Track Peak [ CRC32  ] [W/O NULL] 
 --  100.0 [B2296362] [B5EA1BC6]           
 01   90.9 [4FDC7C4C] [F988C6DE]           
 02   86.0 [0E102536] [9515F0F6]           
 03  100.0 [B8FF41AD] [E08541E0]           
 04   99.9 [39219A1A] [D57C42FF]           
 05   99.7 [5914B7CB] [7283DD5B]           
 06   99.9 [8600F846] [7B8ED10B]           
 07  100.0 [73036657] [BF0F7669]           
 08  100.0 [23B957B3] [38A474B2]           
 09  100.0 [652A9757] [09B99AF1]           
 10   94.3 [85315980] [272FEEF4]           
 11  100.0 [1153136C] [838E337D]           
 12   85.8 [965F77C3] [3EDA4BF6]           
 13  100.0 [E8CE9AA9] [EDF84509]           
 14  100.0 [68A56925] [B13D64B0]           
 15   94.2 [3D8F6A15] [5F89CD2F]           
 16  100.0 [B351DE3D] [BC86A6EB]           
 17  100.0 [5CFA2759] [2196F2D7]           
 18  100.0 [835B3236] [4C5BDDA6]           
 19   71.2 [AB779983] [C0CC4612]           
 20  100.0 [62DF5BA1] [5011B95A]           
 21  100.0 [881E5438] [6E3C8C10]           
 22   86.7 [E0887ED9] [F433C113]           
 23  100.0 [026B6554] [B23E3684]           
 24  100.0 [D98C93BF] [C570F1F3]           
 25   97.0 [CDDD6A33] [A094E922]           



Create a new paste based on this one


Comments: