[ create a new paste ] login | about

Link: http://codepad.org/lv9dRpy4    [ raw code | fork ]

Plain Text, pasted on Feb 20:
Beyond The Blue Horizon (1971) {2017 Remaster}
->
foobar2000 1.5 / Dynamic Range Meter 1.1.1
log date: 2020-02-20 00:11:10

--------------------------------------------------------------------------------
Analyzed: George Benson / Beyond The Blue Horizon
--------------------------------------------------------------------------------

DR         Peak         RMS     Duration Track
--------------------------------------------------------------------------------
DR12      -0.05 dB   -15.84 dB      9:17 01-So What
DR11      -0.05 dB   -14.27 dB      9:08 02-The Gentle Rain
DR13      -0.05 dB   -15.59 dB      5:33 03-All Clear
DR14      -0.73 dB   -19.42 dB      3:51 04-Ode To A Kudu
DR13      -0.05 dB   -16.23 dB      6:15 05-Somewhere In The East
--------------------------------------------------------------------------------

Number of tracks:  5
Official DR value: DR13

Samplerate:        192000 Hz
Channels:          2
Bits per sample:   24
Bitrate:           5530 kbps
Codec:             FLAC
================================================================================
->
=========================================================================================================================================================
->
White Rabbit (1971) {2013 Remaster}
->
foobar2000 1.5 / Dynamic Range Meter 1.1.1
log date: 2020-02-20 00:11:25

--------------------------------------------------------------------------------
Analyzed: George Benson / White Rabbit
--------------------------------------------------------------------------------

DR         Peak         RMS     Duration Track
--------------------------------------------------------------------------------
DR11      -0.80 dB   -14.58 dB      7:02 01-White Rabbit
DR12      -0.29 dB   -17.36 dB      5:09 02-Theme From "Summer Of '42"
DR11      -0.91 dB   -15.28 dB      5:48 03-Little Train (from Bachianas Brasileiras #2)
DR11      -0.76 dB   -15.13 dB      7:23 04-California Dreamin'
DR14       0.00 dB   -17.44 dB     10:48 05-El Mar
--------------------------------------------------------------------------------

Number of tracks:  5
Official DR value: DR12

Samplerate:        96000 Hz
Channels:          2
Bits per sample:   24
Bitrate:           2893 kbps
Codec:             FLAC
================================================================================
->
=========================================================================================================================================================
->
Body Talk (1973) {2016 Remaster}
->
foobar2000 1.5 / Dynamic Range Meter 1.1.1
log date: 2020-02-20 00:11:52

--------------------------------------------------------------------------------
Analyzed: George Benson / Body Talk
--------------------------------------------------------------------------------

DR         Peak         RMS     Duration Track
--------------------------------------------------------------------------------
DR13      -0.10 dB   -14.45 dB      8:25 01-Dance
DR11      -0.10 dB   -13.01 dB      5:04 02-When Love Has Grown
DR12      -0.10 dB   -14.28 dB      5:15 03-Plum
DR12      -0.10 dB   -13.79 dB      8:23 04-Body Talk
DR13      -0.10 dB   -15.22 dB      9:46 05-Top Of The World
--------------------------------------------------------------------------------

Number of tracks:  5
Official DR value: DR12

Samplerate:        192000 Hz
Channels:          2
Bits per sample:   24
Bitrate:           5381 kbps
Codec:             FLAC
================================================================================
->
=========================================================================================================================================================
->
Bad Benson (1974) {2016 Remaster}
->
foobar2000 1.5 / Dynamic Range Meter 1.1.1
log date: 2020-02-20 00:12:18

--------------------------------------------------------------------------------
Analyzed: George Benson / Bad Benson
--------------------------------------------------------------------------------

DR         Peak         RMS     Duration Track
--------------------------------------------------------------------------------
DR12      -0.10 dB   -14.11 dB      7:10 01-Take Five
DR12      -0.90 dB   -16.88 dB      3:00 02-Summer Wishes, Winter Dreams
DR12      -0.10 dB   -13.66 dB      6:54 03-My Latin Brother
DR10      -0.10 dB   -12.23 dB      6:01 04-No Sooner Said Than Done
DR12      -0.10 dB   -13.82 dB      5:44 05-Full Compass
DR11      -0.10 dB   -14.18 dB      4:55 06-The Changing World
--------------------------------------------------------------------------------

Number of tracks:  6
Official DR value: DR12

Samplerate:        192000 Hz
Channels:          2
Bits per sample:   24
Bitrate:           5191 kbps
Codec:             FLAC
================================================================================
->
=========================================================================================================================================================
->
Breezin' (1976) {2005 Remaster}
->
foobar2000 1.5 / Dynamic Range Meter 1.1.1
log date: 2020-02-20 00:12:27

--------------------------------------------------------------------------------
Analyzed: George Benson / Breezin'
--------------------------------------------------------------------------------

DR         Peak         RMS     Duration Track
--------------------------------------------------------------------------------
DR14      -5.90 dB   -21.99 dB      5:42 01-Breezin'
DR15      -6.50 dB   -24.03 dB      8:05 02-This Masquerade
DR15      -6.87 dB   -23.37 dB      5:11 03-Six To Four
DR13      -6.37 dB   -21.57 dB      6:51 04-Affirmation
DR13      -6.52 dB   -21.68 dB      7:00 05-So This Is Love
DR13      -6.03 dB   -22.23 dB      6:02 06-Lady
--------------------------------------------------------------------------------

Number of tracks:  6
Official DR value: DR14

Samplerate:        96000 Hz
Channels:          2
Bits per sample:   24
Bitrate:           2063 kbps
Codec:             FLAC
================================================================================
->
=========================================================================================================================================================
->
Good Kind Bad (1976) {2013 Remaster}
->
foobar2000 1.5 / Dynamic Range Meter 1.1.1
log date: 2020-02-20 00:13:06

--------------------------------------------------------------------------------
Analyzed: ジョージ・ベンソン / グッド・キング・バッド
--------------------------------------------------------------------------------

DR         Peak         RMS     Duration Track
--------------------------------------------------------------------------------
DR13      -5.22 dB   -20.93 dB      4:57 ?-エム
DR13      -5.11 dB   -21.17 dB      6:59 ?-キャスト・ユア・フェイト
DR13      -5.36 dB   -20.52 dB      6:03 ?-グッド・キング・バッドのテーマ
DR12      -5.81 dB   -21.19 dB      5:16 ?-シェル・オブ・ア・マン
DR12      -5.84 dB   -20.27 dB      6:44 ?-シベリアン・ワークアウト
DR13      -6.03 dB   -21.20 dB      6:50 ?-ドント・メイク・ノー・ボールダー
--------------------------------------------------------------------------------

Number of tracks:  6
Official DR value: DR12

Samplerate:        2822400 Hz / PCM Samplerate: 44100 Hz
Channels:          2
Bits per sample:   1
Bitrate:           5645 kbps
Codec:             DSD64
================================================================================
->
=========================================================================================================================================================
->
Guitar Man (2011)
->
foobar2000 1.5 / Dynamic Range Meter 1.1.1
log date: 2020-02-20 00:13:24

--------------------------------------------------------------------------------
Analyzed: George Benson / Guitar Man
--------------------------------------------------------------------------------

DR         Peak         RMS     Duration Track
--------------------------------------------------------------------------------
DR12      -0.40 dB   -15.38 dB      2:02 01-01 - Tenderly
DR10      -0.10 dB   -11.64 dB      5:10 02-02 - I Want to Hold Your Hand
DR9       -0.10 dB   -10.39 dB      4:08 03-03 - My Cherie Amour
DR9       -0.10 dB   -11.56 dB      3:41 04-04 - Naima
DR7       -0.02 dB    -8.63 dB      4:31 05-05 - Tequila
DR10      -0.28 dB   -12.89 dB      2:45 06-06 - Dont Know Why
DR8       -0.02 dB   -10.33 dB      4:30 07-07 - The Lady in My Life
DR10      -0.10 dB   -13.00 dB      3:25 08-08 - My One and Only Love
DR10      -0.10 dB   -11.74 dB      2:45 09-09 - Paper Moon
DR11      -0.79 dB   -14.19 dB      3:27 10-10 - Danny Boy
DR10      -0.32 dB   -13.69 dB      2:59 11-11 - Since I Fell For You
DR7       -0.02 dB    -8.79 dB      3:40 12-12 - Fingerlero
--------------------------------------------------------------------------------

Number of tracks:  12
Official DR value: DR9

Samplerate:        96000 Hz
Channels:          2
Bits per sample:   24
Bitrate:           3194 kbps
Codec:             FLAC
================================================================================
->
=========================================================================================================================================================
->
Inspiration: A Tribute To Nat King Cole (2013)
->
foobar2000 1.5 / Dynamic Range Meter 1.1.1
log date: 2020-02-20 00:13:39

--------------------------------------------------------------------------------
Analyzed: George Benson / Inspiration (A Tribute To Nat King Cole)
--------------------------------------------------------------------------------

DR         Peak         RMS     Duration Track
--------------------------------------------------------------------------------
DR6      -13.60 dB   -23.65 dB      0:57 01-Mona Lisa – Lil' Georgie Benson
DR8       -0.02 dB    -9.66 dB      2:42 02-Just One Of Those Things
DR9       -0.02 dB   -11.41 dB      5:05 03-Unforgettable (feat. Wynton Marsalis)
DR10      -0.02 dB   -12.42 dB      2:43 04-Walkin’ My Baby Back Home
DR11      -0.10 dB   -13.84 dB      4:04 05-When I Fall In Love (feat. Idina Menzel)
DR10      -0.02 dB   -12.15 dB      3:50 06-Route 66
DR11      -1.54 dB   -15.29 dB      2:40 07-Nature Boy
DR9       -0.02 dB   -11.09 dB      2:46 08-Ballerina
DR9       -0.02 dB   -12.78 dB      3:22 09-Smile (feat. Till Brönner)
DR11      -0.02 dB   -12.68 dB      3:06 10-Straighten Up And Fly Right
DR11      -0.02 dB   -14.04 dB      3:28 11-Too Young (feat. Judith Hill)
DR9       -0.02 dB   -10.87 dB      3:05 12-I’m Gonna Sit Right Down And Write Myself A Letter
DR12      -0.14 dB   -14.31 dB      3:02 13-Mona Lisa
--------------------------------------------------------------------------------

Number of tracks:  13
Official DR value: DR10

Samplerate:        96000 Hz
Channels:          2
Bits per sample:   24
Bitrate:           2969 kbps
Codec:             FLAC
================================================================================
->
=========================================================================================================================================================
->
Walking To New Orleans (2019)
->
foobar2000 1.5 / Dynamic Range Meter 1.1.1
log date: 2020-02-20 00:13:48

--------------------------------------------------------------------------------
Analyzed: George Benson / Walking To New Orleans
--------------------------------------------------------------------------------

DR         Peak         RMS     Duration Track
--------------------------------------------------------------------------------
DR9       -0.10 dB   -10.33 dB      3:53 01-Nadine (Is It You)
DR9       -0.10 dB   -10.56 dB      3:50 02-Ain't That A Shame
DR10      -0.10 dB   -10.91 dB      3:39 03-Rockin' Chair
DR9       -0.10 dB   -10.25 dB      3:35 04-You Can't Catch Me
DR9       -0.10 dB   -10.28 dB      4:54 05-Havana Moon
DR9       -0.10 dB   -10.37 dB      3:45 06-I Hear You Knocking
DR9       -0.10 dB    -9.95 dB      3:19 07-Memphis, Tennessee
DR9       -0.10 dB   -10.32 dB      4:08 08-Walking To New Orleans
DR9       -0.10 dB   -10.44 dB      3:03 09-Blue Monday
DR9       -0.10 dB   -10.25 dB      3:20 10-How You've Changed
--------------------------------------------------------------------------------

Number of tracks:  10
Official DR value: DR9

Samplerate:        48000 Hz
Channels:          2
Bits per sample:   24
Bitrate:           1593 kbps
Codec:             FLAC
================================================================================





Create a new paste based on this one


Comments: