[ create a new paste ] login | about

Link: http://codepad.org/m2BieMJD    [ raw code | fork ]

Plain Text, pasted on Aug 30:
[CUETools log; Date: 8/29/2019 11:51:06 PM; Version: 2.1.5]
[CTDB TOCID: _St6Xvo0WtzucMK19FP3fXvKpgs-] found.
Track | CTDB Status
  1   | (12/12) Accurately ripped
  2   | (12/12) Accurately ripped
  3   | (12/12) Accurately ripped
  4   | (12/12) Accurately ripped
  5   | (12/12) Accurately ripped
  6   | (12/12) Accurately ripped
  7   | (12/12) Accurately ripped
  8   | (12/12) Accurately ripped
  9   | (12/12) Accurately ripped
 10   | (12/12) Accurately ripped
 11   | (12/12) Accurately ripped
 12   | (12/12) Accurately ripped
[AccurateRip ID: 0022fddb-0147eea6-ac128a0c] found.
Track   [  CRC   |   V2   ] Status
 01     [4162ea4d|bb7d9b4f] (0+0/6) No match
 02     [7555e4f7|ae39c145] (0+0/6) No match
 03     [712a33ec|b65febde] (0+0/6) No match
 04     [0ca732a1|277974e5] (0+0/6) No match
 05     [e043d568|969f8a76] (0+0/6) No match
 06     [acbc4ff6|b62f4659] (0+0/6) No match
 07     [277d4d88|a511b733] (0+0/6) No match
 08     [0ea49d1f|ee469c48] (0+0/6) No match
 09     [a164facf|3e5e54fe] (0+0/6) No match
 10     [7729fcab|eb22da10] (0+0/6) No match
 11     [4631df0a|bf62c0c9] (0+0/6) No match
 12     [101cadbc|1d2dfce3] (0+0/6) No match
Offsetted by 102:
 01     [53890ac9] (0/6) No match (V2 was not tested)
 02     [45d9451f] (0/6) No match (V2 was not tested)
 03     [b0439e28] (0/6) No match (V2 was not tested)
 04     [eca02171] (0/6) No match (V2 was not tested)
 05     [e3d094ba] (0/6) No match (V2 was not tested)
 06     [c4629954] (0/6) No match (V2 was not tested)
 07     [91b757cf] (0/6) No match (V2 was not tested)
 08     [6e3fb514] (0/6) No match (V2 was not tested)
 09     [982bf2ed] (0/6) No match (V2 was not tested)
 10     [52e3b546] (0/6) No match (V2 was not tested)
 11     [5e51a438] (0/6) No match (V2 was not tested)
 12     [41aa6d55] (0/6) No match (V2 was not tested)

Track Peak [ CRC32  ] [W/O NULL] [  LOG   ]
 --   99.4 [D5BFB669] [59941FAF]   CRC32   
 01   99.4 [91D7740B] [F85E78A8]           
 02   99.4 [058EFF83] [A22F6678]           
 03   99.4 [BA631D7E] [101CA438]           
 04   99.4 [6B187AD3] [1799B826]           
 05   99.4 [51B02BB7] [21C46A6D]           
 06   99.4 [17AE1B20] [0F64F676]           
 07   99.4 [9C464D3E] [01BD54DD]           
 08   91.7 [7DFAADE3] [CD920E11]           
 09   99.4 [60CE8E60] [7A7475A8]           
 10   99.4 [819AA2D7] [1D3A0AC6]           
 11   99.4 [030E20D1] [27CBDA39]           
 12   99.4 [2801E0E6] [980D2286]           



Create a new paste based on this one


Comments: