[ create a new paste ] login | about

Link: http://codepad.org/m2kf5iid    [ raw code | fork ]

Plain Text, pasted on Aug 7:
foobar2000 1.3.17 / Dynamic Range Meter 1.1.1
log date: 2018-08-06 13:25:09

--------------------------------------------------------------------------------
Analyzed: Rod Stewart / Time (Deluxe Edition)
--------------------------------------------------------------------------------

DR         Peak         RMS     Duration Track
--------------------------------------------------------------------------------
DR7        0.00 dB    -7.97 dB      3:44 01-She Makes Me Happy
DR6       -0.06 dB    -7.98 dB      4:27 02-Can't Stop Me Now
DR7       -0.09 dB    -9.77 dB      4:19 03-It's Over
DR9       -0.36 dB   -11.68 dB      4:25 04-Brighton Beach
DR6        0.00 dB    -7.42 dB      3:59 05-Beautiful Morning
DR7       -0.01 dB    -8.72 dB      4:27 06-Live The Life
DR7        0.00 dB    -7.93 dB      3:54 07-Finest Woman
DR7       -0.04 dB    -8.40 dB      4:27 08-Time
DR9       -0.40 dB   -12.05 dB      2:53 09-Picture In A Frame
DR6        0.00 dB    -7.55 dB      4:46 10-Sexual Religion
DR6       -0.04 dB    -8.51 dB      3:44 11-Make Love To Me Tonight
DR7       -0.07 dB   -11.00 dB      5:10 12-Pure Love
DR8       -0.35 dB   -10.66 dB      3:27 13-Corrina Corrina (Bonus Track)
DR6       -0.13 dB    -7.24 dB      3:51 14-Legless (Bonus Track)
DR8       -0.36 dB   -10.91 dB      4:04 15-Love Has No Pride (Bonus Track)
--------------------------------------------------------------------------------

Number of tracks:  15
Official DR value: DR7

Samplerate:        44100 Hz
Channels:          2
Bits per sample:   24
Bitrate:           1550 kbps
Codec:             FLAC
================================================================================




Create a new paste based on this one


Comments: